* Dettagli Torrent   globale  | Commenti (0) 


- Resident Evil vendetta (2017).H264.Italian.English.Ac3.sub.eng.iCV-MIRCrew -


Download via torrent:
Categoria bittorrent BDRip
Descrizione
Biohazard: Vendetta - Biohazard: Vendetta - Resident Evil vendetta (2017).H264.Italian.English.Ac3.sub.eng.iCV-MIRCrew

[center]by www.icv-crew.org


NO FOUND ONLY ORIGINAL RELEASE



My release is always in double track audio italian and Original audio
for select it use VLC or dvd player home
not use wmp

Resident Evil vendetta - Biohazard: Vendetta (2017)







Titolo originale Biohazard: Vendetta
Paese di produzione Giappone
Anno 2017
Durata 97 minuti
Rapporto 1.85 : 1
Genere animazione, orrore, azione, fantascienza
Regia Takanori Tsujimoto
Soggetto tratto dal videogioco Resident Evil
Sceneggiatura Makoto Fukami, Joe McClean
Produttore Hiroyuki Kobayashi, Kei Miyamoto, Hiroyasu Shinohara, Kosei Sugimoto
Produttore esecutivo Takashi Shimizu
Distribuzione (Italia) The Space Extra
Musiche Kenji Kawai




   Erin Cahill: Rebecca Chambers
   John DeMita: Glenn Arias
   Kevin Dorman: Chris Redfield
   Arif S. Kinchen: D.C.
   Matthew Mercer: Leon Scott Kennedy
   Arnie Pantoja: Damian
   Fred Tatasciore: Diego Gomez
   Kari Wahlgren: Nadia




In questo nuovo capitolo della saga ritroviamo i tre protagonisti, l'agente del BSAA Chris Redfield, la ricercatrice Rebecca Chambers e l'esperto in materia Leon Scott Kennedy. ...........



Chris Redfield enlists the help of Leon S. Kennedy and Rebecca Chambers to stop a death merchant, with a vengeance, from spreading a deadly virus in New York.











[spoiler]
General
Unique ID                                : 160060222920322923443420260155218732048 (0x786A7A457C1EE03FBD3C70F087FC2410)
Complete name                            : Resident Evil - vendetta (2017).H264.ita.eng.sub.ita.eng.iCV-MIRCrew.mkv
Format                                   : Matroska
Format version                           : Version 2
File size                                : 1.13 GiB
Duration                                 : 1h 37mn
Overall bit rate                         : 1 656 Kbps
Movie name                               : www.icv-crew.org
Encoded date                             : UTC 2017-07-17 21:13:31
Writing application                      : Lavf54.63.100
Writing library                          : Lavf54.63.100
COPYRIGHT                                : robbyrs
DATE                                     : 2017

Video
ID                                       : 1
Format                                   : AVC
Format/Info                              : Advanced Video Codec
Format profile                           : [email protected]
Format settings, CABAC                   : Yes
Format settings, ReFrames                : 2 frames
Codec ID                                 : V_MPEG4/ISO/AVC
Duration                                 : 1h 37mn
Bit rate                                 : 1 290 Kbps
Width                                    : 720 pixels
Height                                   : 404 pixels
Display aspect ratio                     : 16:9
Frame rate mode                          : Variable
Frame rate                               : 23.976 fps
Color space                              : YUV
Chroma subsampling                       : 4:2:0
Bit depth                                : 8 bits
Scan type                                : Progressive
Bits/(Pixel*Frame)                       : 0.185
Stream size                              : 862 MiB (75%)
Writing library                          : x264 core 130 r2273
Encoding settings                        : cabac=1 / ref=2 / deblock=1:0:0 / analyse=0x1:0x131 / me=hex / subme=7 / psy=1 / psy_rd=1.00:0.00 / mixed_ref=0 / me_range=16 / chroma_me=1 / trellis=1 / 8x8dct=0 / cqm=0 / deadzone=21,11 / fast_pskip=1 / chroma_qp_offset=-2 / threads=12 / lookahead_threads=2 / sliced_threads=0 / nr=0 / decimate=1 / interlaced=0 / bluray_compat=0 / constrained_intra=0 / bframes=3 / b_pyramid=0 / b_adapt=1 / b_bias=0 / direct=3 / weightb=1 / open_gop=0 / weightp=2 / keyint=230 / keyint_min=23 / scenecut=40 / intra_refresh=0 / rc_lookahead=40 / rc=abr / mbtree=1 / bitrate=1290 / ratetol=1.0 / qcomp=0.60 / qpmin=10 / qpmax=69 / qpstep=4 / vbv_maxrate=24000 / vbv_bufsize=24000 / nal_hrd=none / ip_ratio=1.40 / aq=1:1.00
Language                                 : Italian
Default                                  : Yes
Forced                                   : No
DURATION                                 : 01:37:14.788000000
NUMBER_OF_FRAMES                         : 139895
NUMBER_OF_BYTES                          : 7025512900
_STATISTICS_WRITING_APP                  : mkvmerge v9.9.0 ('Pick Up') 32bit
_STATISTICS_WRITING_DATE_UTC             : 2017-07-05 19:53:10
_STATISTICS_TAGS                         : BPS DURATION NUMBER_OF_FRAMES NUMBER_OF_BYTES

Audio #1
ID                                       : 2
Format                                   : AC-3
Format/Info                              : Audio Coding 3
Mode extension                           : CM (complete main)
Codec ID                                 : A_AC3
Duration                                 : 1h 37mn
Bit rate mode                            : Constant
Bit rate                                 : 192 Kbps
Channel(s)                               : 2 channels
Channel positions                        : Front: L R
Sampling rate                            : 48.0 KHz
Bit depth                                : 16 bits
Compression mode                         : Lossy
Delay relative to video                  : 1mn 5s
Stream size                              : 134 MiB (12%)
Language                                 : Italian
Default                                  : Yes
Forced                                   : No
DURATION                                 : 01:37:14.848000000
NUMBER_OF_FRAMES                         : 182339
NUMBER_OF_BYTES                          : 140036352
_STATISTICS_WRITING_APP                  : mkvmerge v9.9.0 ('Pick Up') 32bit
_STATISTICS_WRITING_DATE_UTC             : 2017-07-05 19:53:10
_STATISTICS_TAGS                         : BPS DURATION NUMBER_OF_FRAMES NUMBER_OF_BYTES

Audio #2
ID                                       : 3
Format                                   : AC-3
Format/Info                              : Audio Coding 3
Mode extension                           : CM (complete main)
Codec ID                                 : A_AC3
Duration                                 : 1h 37mn
Bit rate mode                            : Constant
Bit rate                                 : 192 Kbps
Channel(s)                               : 2 channels
Channel positions                        : Front: L R
Sampling rate                            : 48.0 KHz
Bit depth                                : 16 bits
Compression mode                         : Lossy
Delay relative to video                  : 1mn 5s
Stream size                              : 134 MiB (12%)
Language                                 : English
Default                                  : No
Forced                                   : No
DURATION                                 : 01:37:14.838000000
NUMBER_OF_FRAMES                         : 547016
NUMBER_OF_BYTES                          : 1100597752
_STATISTICS_WRITING_APP                  : mkvmerge v9.9.0 ('Pick Up') 32bit
_STATISTICS_WRITING_DATE_UTC             : 2017-07-05 19:53:10
_STATISTICS_TAGS                         : BPS DURATION NUMBER_OF_FRAMES NUMBER_OF_BYTES

Text
ID                                       : 4
Format                                   : ASS
Codec ID                                 : S_TEXT/ASS
Codec ID/Info                            : Advanced Sub Station Alpha
Compression mode                         : Lossless
Language                                 : English
Default                                  : No
Forced                                   : No
DURATION                                 : 01:36:20.607000000
NUMBER_OF_FRAMES                         : 765
NUMBER_OF_BYTES                          : 23551
_STATISTICS_WRITING_APP                  : mkvmerge v9.9.0 ('Pick Up') 32bit
_STATISTICS_WRITING_DATE_UTC             : 2017-07-05 19:53:10
_STATISTICS_TAGS                         : BPS DURATION NUMBER_OF_FRAMES NUMBER_OF_BYTES

Menu
00:00:00.000                             : :00:00:00.000
00:01:57.491                             : :00:01:57.491
00:11:47.623                             : :00:11:47.623
00:17:51.944                             : :00:17:51.944
00:25:12.259                             : :00:25:12.259
00:31:00.567                             : :00:31:00.567
00:36:43.117                             : :00:36:43.117
00:42:49.817                             : :00:42:49.817
00:48:20.981                             : :00:48:20.981
00:53:50.851                             : :00:53:50.851
00:58:51.027                             : :00:58:51.027
01:06:58.597                             : :01:06:58.597
01:11:38.836                             : :01:11:38.836
01:15:13.050                             : :01:15:13.050
01:21:41.688                             : :01:21:41.688
01:29:38.747                             : :01:29:38.747


[/spoiler]

[/center]

Info: Per scaricare devi usare un client come uTorrent o Transmission
AnnounceURL
udp://tracker.coppersurfer.tk:6969/announce
Hash 4fe6b2d7da7a4d7250f8c64eb040980a85e20c65
Peers seeds: 108 , leech: 8
Size 1.13 GB
Completato 2083x
Aggiunto 22.07.17 - 07:07:04
Uploader   robbyrs
Votazione (Voti: 0)


Condividi questo bittorrent:


html/blog:


bbcode/forum:




Aggiungi Commento


counter