* Dettagli Torrent   globale  | Commenti (0) 


- Batman Vs Dracula Batman - contro Dracula (2005).H264.Italian.English.Ac3.5.1.sub.ita.iCV-MIRCrew -


Download via torrent:
Categoria bittorrent BDRip
Descrizione
Batman Vs Dracula Batman - contro Dracula (2005).H264.Italian.English.Ac3.5.1.sub.ita.iCV-MIRCrew

[center]by www.icv-crew.org


NO FOUND ONLY ORIGINAL RELEASE



My release is always in double track audio italian and Original audio
for select it use VLC or dvd player home
not use wmp

Batman Vs Dracula (2005)







Titolo originale The Batman vs. Dracula
Paese di produzione Stati Uniti d'America
Anno 2005
Durata 84 min
Genere animazione
Regia Michael Goguen
Sceneggiatura Duane Capizzi



Doppiatori originali

   Rino Romano: Bruce Wayne / Batman
   Peter Stormare: Dracula
   Tara Strong: Vicki Vale
   Tom Kenny: Oswald Cobblepot / Pinguino
   Kevin Michael Richardson: Joker
   Alastair Duncan: Alfred Pennyworth

Doppiatori italiani

   Marco Balzarotti: Bruce Wayne / Batman
   Marco Balbi: Dracula
   Renata Bertolas: Vicki Vale
   Vittorio Bestoso: Oswald Cobblepot / Pinguino
   Riccardo Peroni: Joker
   Guido Rutta: Alfred Pennyworth




Gotham City. Il Joker e il Pinguino fuggono dal manicomio di Arkham. Al cimitero di Gotham, Pinguino cerca un tesoro che aveva nascosto lì, ma scopre che c'è solo la bara del famigerato Conte Dracula, esportata lì e, sbadatamente, lo sveglia. Dracula morde il guardiano del cimitero, ipnotizza Pinguino, sempre col tentativo di creare un esercito di altri vampiri



Batman faces off against the original creature of the night, Count Dracula, who has been unintentionally resurrected by the Penguin.











[spoiler]
General
Unique ID                                : 246284541270036412874500287999248989152 (0xB948AD62B10A24FC95F77F3D39887BE0)
Complete name                            : Batman Vs Dracula (2005).H264.ita.eng.iCV-MIRCrew.mkv
Format                                   : Matroska
Format version                           : Version 2
File size                                : 1 001 MiB
Duration                                 : 1h 23mn
Overall bit rate                         : 1 671 Kbps
Movie name                               : The.Batman.Vs.Dracula.2005.720p.DLMux.ITA.ENG.x264-MortySwim [By T7ST]
Encoded date                             : UTC 2017-05-31T15:53:32Z
Writing application                      : HandBrake 0.10.5 2016021100
Writing library                          : Lavf55.12.0

Video
ID                                       : 1
Format                                   : AVC
Format/Info                              : Advanced Video Codec
Format profile                           : [email protected]
Format settings, CABAC                   : Yes
Format settings, ReFrames                : 4 frames
Codec ID                                 : V_MPEG4/ISO/AVC
Duration                                 : 1h 23mn
Bit rate                                 : 1 290 Kbps
Width                                    : 688 pixels
Height                                   : 384 pixels
Display aspect ratio                     : 16:9
Frame rate mode                          : Variable
Frame rate                               : 23.976 fps
Color space                              : YUV
Chroma subsampling                       : 4:2:0
Bit depth                                : 8 bits
Scan type                                : Progressive
Bits/(Pixel*Frame)                       : 0.204
Stream size                              : 751 MiB (75%)
Writing library                          : x264 core 142 r2479 dd79a61
Encoding settings                        : cabac=1 / ref=1 / deblock=1:0:0 / analyse=0x1:0x111 / me=hex / subme=2 / psy=1 / psy_rd=1.00:0.00 / mixed_ref=0 / me_range=16 / chroma_me=1 / trellis=0 / 8x8dct=0 / cqm=0 / deadzone=21,11 / fast_pskip=1 / chroma_qp_offset=0 / threads=12 / lookahead_threads=3 / sliced_threads=0 / nr=0 / decimate=1 / interlaced=0 / bluray_compat=0 / constrained_intra=0 / bframes=3 / b_pyramid=2 / b_adapt=1 / b_bias=0 / direct=1 / weightb=1 / open_gop=0 / weightp=1 / keyint=240 / keyint_min=24 / scenecut=40 / intra_refresh=0 / rc_lookahead=10 / rc=abr / mbtree=1 / bitrate=1290 / ratetol=1.0 / qcomp=0.60 / qpmin=0 / qpmax=69 / qpstep=4 / vbv_maxrate=20000 / vbv_bufsize=25000 / nal_hrd=none / filler=0 / ip_ratio=1.40 / aq=1:1.00
Default                                  : Yes
Forced                                   : No
Color primaries                          : BT.709-5, BT.1361, IEC 61966-2-4, SMPTE RP177
Transfer characteristics                 : BT.709-5, BT.1361
Matrix coefficients                      : BT.709-5, BT.1361, IEC 61966-2-4 709, SMPTE RP177

Audio #1
ID                                       : 2
Format                                   : AC-3
Format/Info                              : Audio Coding 3
Mode extension                           : CM (complete main)
Codec ID                                 : A_AC3
Duration                                 : 1h 23mn
Bit rate mode                            : Constant
Bit rate                                 : 192 Kbps
Channel(s)                               : 2 channels
Channel positions                        : Front: L R
Sampling rate                            : 48.0 KHz
Bit depth                                : 16 bits
Compression mode                         : Lossy
Delay relative to video                  : 1mn 5s
Stream size                              : 115 MiB (11%)
Title                                    : Stereo
Language                                 : Italian
Default                                  : Yes
Forced                                   : No

Audio #2
ID                                       : 3
Format                                   : AC-3
Format/Info                              : Audio Coding 3
Mode extension                           : CM (complete main)
Codec ID                                 : A_AC3
Duration                                 : 1h 23mn
Bit rate mode                            : Constant
Bit rate                                 : 192 Kbps
Channel(s)                               : 2 channels
Channel positions                        : Front: L R
Sampling rate                            : 48.0 KHz
Bit depth                                : 16 bits
Compression mode                         : Lossy
Delay relative to video                  : 1mn 5s
Stream size                              : 115 MiB (11%)
Title                                    : Stereo
Language                                 : English
Default                                  : No
Forced                                   : No

Menu
00:00:00.000                             : :Credits.
00:02:01.162                             : :Arkham escapees.
00:07:10.096                             : :Out for blood.
00:13:22.093                             : :Chosen servant.
00:17:34.095                             : :Vampire trio.
00:24:16.122                             : r. Alucard.
00:32:06.092                             : :Shadows of the bat.
00:42:39.142                             : :Breakfast in bed.
00:46:33.126                             : :Blood work.
00:53:35.090                             : :Breakthrough.
00:59:57.138                             : ate with Vicky.
01:04:26.116                             : :Rescuing the lost ones.
01:08:02.165                             : :Cavern combat.
01:14:36.142                             : :Rise and shine.
01:20:19.110                             : :End Credits.


[/spoiler]

[/center]

Info: Per scaricare devi usare un client come uTorrent o Transmission
AnnounceURL
udp://tracker.coppersurfer.tk:6969/announce
Hash 6f3e57f2e664fef4054dbad82b60494365d38853
Peers seeds: 87 , leech: 7
Size 0.98 GB
Completato 1201x
Aggiunto 21.07.17 - 14:07:12
Uploader   robbyrs
Votazione (Voti: 1)


Condividi questo bittorrent:


html/blog:


bbcode/forum:




Aggiungi Commento


counter