* Dettagli Torrent   globale  | Commenti (0) 


- La vendetta di un uomo tranquillo (2016).H264.Italian.Spanish.Ac3.5.1.sub.ita.eng.iCV-MIRCrew -


Download via torrent:
Categoria bittorrent BDRip
Descrizione
The Fury of a Patient Man  - La vendetta di un uomo tranquillo (2016).H264.Italian.Spanish.Ac3.5.1.sub.ita.eng.iCV-MIRCrew


[center]by www.icv-crew.org


NO FOUND ONLY ORIGINAL RELEASE



My release is always in double track audio italian and Original audio
for select it use VLC or dvd player home
not use wmp

La vendetta di un uomo tranquillo (2016)

ENGLISH SUBTITLE INSIDE

PRESENTI ANCHE i SOTTOTITOLI

ESTERNI IN SRT (ita/eng)







   DATA USCITA: 30 marzo 2017
   GENERE: Drammatico, Thriller
   ANNO: 2016
   REGIA: Raúl Arévalo
   
   PAESE: Spagna
   DURATA: 92 Min
   DISTRIBUZIONE: BIM



Antonio de la Torre, Luis Callejo, Ruth Díaz, Raúl Jiménez, Manolo Solo



Madrid, agosto 2007. Curro è l’unico di una banda di quattro criminali che viene arrestato per una rapina in una gioielleria. Otto anni più tardi, la sua fidanzata Ana e il loro figlio sono in attesa che lui esca di prigione........................



A hard-working single mother and wife of a getaway driver who is about to be released is approached by an unassuming and gentle man, completely unaware though of his inscrutable and utterly impelling motives.











[spoiler]
General
Unique ID                                : 121421377430041038825486493179374497476 (0x5B58E81B66FDB739771E6FA44C486EC4)
Complete name                            : La vendetta di un uomo tranquillo (2016).H264.ita.spasub.ita.eng.iCV-MIRCrew.mkv
Format                                   : Matroska
Format version                           : Version 2
File size                                : 1.40 GiB
Duration                                 : 1h 32mn
Overall bit rate                         : 2 172 Kbps
Movie name                               : www.icv-crew.org
Encoded date                             : UTC 2017-07-18 20:47:17
Writing application                      : Lavf54.63.100
Writing library                          : Lavf54.63.100
COPYRIGHT                                : robbyrs
DATE                                     : 2017

Video
ID                                       : 1
Format                                   : AVC
Format/Info                              : Advanced Video Codec
Format profile                           : [email protected]
Format settings, CABAC                   : Yes
Format settings, ReFrames                : 2 frames
Codec ID                                 : V_MPEG4/ISO/AVC
Duration                                 : 1h 32mn
Bit rate                                 : 1 290 Kbps
Width                                    : 720 pixels
Height                                   : 304 pixels
Display aspect ratio                     : 2.40:1
Frame rate mode                          : Variable
Frame rate                               : 24.000 fps
Color space                              : YUV
Chroma subsampling                       : 4:2:0
Bit depth                                : 8 bits
Scan type                                : Progressive
Bits/(Pixel*Frame)                       : 0.246
Stream size                              : 815 MiB (57%)
Writing library                          : x264 core 130 r2273
Encoding settings                        : cabac=1 / ref=2 / deblock=1:0:0 / analyse=0x1:0x131 / me=hex / subme=7 / psy=1 / psy_rd=1.00:0.00 / mixed_ref=0 / me_range=16 / chroma_me=1 / trellis=1 / 8x8dct=0 / cqm=0 / deadzone=21,11 / fast_pskip=1 / chroma_qp_offset=-2 / threads=12 / lookahead_threads=2 / sliced_threads=0 / nr=0 / decimate=1 / interlaced=0 / bluray_compat=0 / constrained_intra=0 / bframes=3 / b_pyramid=0 / b_adapt=1 / b_bias=0 / direct=3 / weightb=1 / open_gop=0 / weightp=2 / keyint=240 / keyint_min=24 / scenecut=40 / intra_refresh=0 / rc_lookahead=40 / rc=abr / mbtree=1 / bitrate=1290 / ratetol=1.0 / qcomp=0.60 / qpmin=10 / qpmax=69 / qpstep=4 / vbv_maxrate=24000 / vbv_bufsize=24000 / nal_hrd=none / ip_ratio=1.40 / aq=1:1.00
Language                                 : Italian
Default                                  : Yes
Forced                                   : No

Audio #1
ID                                       : 2
Format                                   : AC-3
Format/Info                              : Audio Coding 3
Mode extension                           : CM (complete main)
Codec ID                                 : A_AC3
Duration                                 : 1h 32mn
Bit rate mode                            : Constant
Bit rate                                 : 448 Kbps
Channel(s)                               : 6 channels
Channel positions                        : Front: L C R, Side: L R, LFE
Sampling rate                            : 48.0 KHz
Bit depth                                : 16 bits
Compression mode                         : Lossy
Delay relative to video                  : 1mn 5s
Stream size                              : 296 MiB (21%)
Language                                 : Italian
Default                                  : Yes
Forced                                   : No

Audio #2
ID                                       : 3
Format                                   : AC-3
Format/Info                              : Audio Coding 3
Mode extension                           : CM (complete main)
Codec ID                                 : A_AC3
Duration                                 : 1h 32mn
Bit rate mode                            : Constant
Bit rate                                 : 448 Kbps
Channel(s)                               : 6 channels
Channel positions                        : Front: L C R, Side: L R, LFE
Sampling rate                            : 48.0 KHz
Bit depth                                : 16 bits
Compression mode                         : Lossy
Delay relative to video                  : 1mn 5s
Stream size                              : 296 MiB (21%)
Language                                 : Spanish
Default                                  : No
Forced                                   : No

Text #1
ID                                       : 4
Format                                   : ASS
Codec ID                                 : S_TEXT/ASS
Codec ID/Info                            : Advanced Sub Station Alpha
Compression mode                         : Lossless
Title                                    : Forced
Language                                 : Italian
Default                                  : Yes
Forced                                   : No

Text #2
ID                                       : 5
Format                                   : ASS
Codec ID                                 : S_TEXT/ASS
Codec ID/Info                            : Advanced Sub Station Alpha
Compression mode                         : Lossless
Title                                    : Regular
Language                                 : Italian
Default                                  : No
Forced                                   : No

Text #3
ID                                       : 6
Format                                   : ASS
Codec ID                                 : S_TEXT/ASS
Codec ID/Info                            : Advanced Sub Station Alpha
Compression mode                         : Lossless
Title                                    : Regular
Language                                 : English
Default                                  : No
Forced                                   : No

Menu
00:00:00.000                             : :00:00:00.000
00:05:50.958                             : :00:05:50.958
00:11:11.375                             : :00:11:11.375
00:15:18.083                             : :00:15:18.083
00:20:44.375                             : :00:20:44.375
00:29:05.417                             : :00:29:05.417
00:33:57.708                             : :00:33:57.708
00:39:30.458                             : :00:39:30.458
00:44:06.708                             : :00:44:06.708
00:51:09.042                             : :00:51:09.042
00:57:18.208                             : :00:57:18.208
01:02:31.583                             : :01:02:31.583
01:07:58.958                             : :01:07:58.958
01:14:00.167                             : :01:14:00.167
01:23:27.250                             : :01:23:27.250
01:26:45.958                             : :01:26:45.958


[/spoiler]

[/center]

Info: Per scaricare devi usare un client come uTorrent o Transmission
AnnounceURL
udp://tracker.coppersurfer.tk:6969/announce
Hash f9ebbef57b9284e22ac239bd267dfd8649b32474
Peers seeds: 179 , leech: 68
Size 1.40 GB
Completato 1723x
Aggiunto 19.07.17 - 09:07:44
Uploader   robbyrs
Votazione (Voti: 0)


Condividi questo bittorrent:


html/blog:


bbcode/forum:




Aggiungi Commento


counter