* Dettagli Torrent   globale  | Commenti (0) 


- Ghost in the Shell (2017).H264.Italian.English.Ac3.5.1.sub.eng.iCV-MIRCrew -


Download via torrent:
Categoria bittorrent BDRip
Descrizione
Ghost in the Shell (2017).H264.Italian.English.Ac3.5.1.sub.eng.iCV-MIRCrew

[center]by www.icv-crew.org


NO FOUND ONLY ORIGINAL RELEASE



My release is always in double track audio italian and Original audio
for select it use VLC or dvd player home
not use wmp

Ghost in the Shell (2017)







Lingua originale inglese, giapponese
Paese di produzione Stati Uniti d'America
Anno 2017
Durata 106 min
Rapporto 2,35 : 1
Genere azione, drammatico, fantascienza, poliziesco, thriller
Regia Rupert Sanders
Soggetto Ghost in the Shell di Masamune Shirow
Sceneggiatura Jamie Moss, William Wheeler
Produttore Avi Arad, Steven Paul, Ari Arad, Michael Costigan
Produttore esecutivo Michael Costigan, Tetsuya Fujimura, Mitsuhisa Ishikawa, Jeffrey Silver, Mark Sourian
Casa di produzione DreamWorks Pictures, Paramount Pictures, Arad Productions, Amblin Partners, Reliance Entertainment
Distribuzione (Italia) Universal Pictures
Fotografia Jess Hall
Montaggio Neil Smith, Billy Rich
Effetti speciali Steve Ingram, Andrew Durni
Musiche Clint Mansell, Lorne Balfe
Scenografia Jan Roelfs
Costumi Kurt and Bart
Trucco Michele Perry




   Scarlett Johansson: Maggiore Mira Killian
   Takeshi Kitano: Daisuke Aramaki
   Pilou Asbæk: Batou
   Michael Pitt: Hideo Kuze
   Juliette Binoche: dott.ssa Ouelet
   Chin Han: Togusa
   Anamaria Marinca: dott.ssa Dahlin
   Michael Wincott: dott. Osmund
   Chris Obi: Cutter
   Danusia Samal: Ladriya
   Lasarus Ratuere: Ishikawa
   Rila Fukushima: Geisha
   Joe Naufahu: Peter Browning




Il Maggiore Mira Killian è un cyborg a capo della sezione di Sicurezza Pubblica numero 9, un'organizzazione antiterrorismo cibernetico gestita dalla Hanka Robotics. Vittima di un terribile incidente, è stata salvata dalla morte e trasformata in un soldato perfetto tramite una modificazione cibernetica, di cui è stata responsabile la dott.ssa Oulet, una delle principali scienziate della Hanka Robotics. ..................



In the near future, Major is the first of her kind: A human saved from a terrible crash, who is cyber-enhanced to be a perfect soldier devoted to stopping the world's most dangerous criminals.












[spoiler]
General
Unique ID                                : 247374617451987915398288392332026446112 (0xBA1A9E4A6E16410552199EEDF0BA0120)
Complete name                            : Ghost in the Shell (2017).H264.ita.eng.sub.eng.iCV-MIRCrew.mkv
Format                                   : Matroska
Format version                           : Version 2
File size                                : 1.64 GiB
Duration                                 : 1h 46mn
Overall bit rate                         : 2 191 Kbps
Movie name                               : www.icv-crew.org
Encoded date                             : UTC 2017-07-13 20:14:46
Writing application                      : Lavf54.63.100
Writing library                          : Lavf54.63.100
COPYRIGHT                                : robbyrs

Video
ID                                       : 1
Format                                   : AVC
Format/Info                              : Advanced Video Codec
Format profile                           : [email protected]
Format settings, CABAC                   : Yes
Format settings, ReFrames                : 2 frames
Codec ID                                 : V_MPEG4/ISO/AVC
Duration                                 : 1h 46mn
Bit rate                                 : 1 290 Kbps
Width                                    : 720 pixels
Height                                   : 404 pixels
Display aspect ratio                     : 16:9
Frame rate mode                          : Variable
Frame rate                               : 23.976 fps
Color space                              : YUV
Chroma subsampling                       : 4:2:0
Bit depth                                : 8 bits
Scan type                                : Progressive
Bits/(Pixel*Frame)                       : 0.185
Stream size                              : 957 MiB (57%)
Writing library                          : x264 core 130 r2273
Encoding settings                        : cabac=1 / ref=2 / deblock=1:0:0 / analyse=0x1:0x131 / me=hex / subme=7 / psy=1 / psy_rd=1.00:0.00 / mixed_ref=0 / me_range=16 / chroma_me=1 / trellis=1 / 8x8dct=0 / cqm=0 / deadzone=21,11 / fast_pskip=1 / chroma_qp_offset=-2 / threads=12 / lookahead_threads=2 / sliced_threads=0 / nr=0 / decimate=1 / interlaced=0 / bluray_compat=0 / constrained_intra=0 / bframes=3 / b_pyramid=0 / b_adapt=1 / b_bias=0 / direct=3 / weightb=1 / open_gop=0 / weightp=2 / keyint=230 / keyint_min=23 / scenecut=40 / intra_refresh=0 / rc_lookahead=40 / rc=abr / mbtree=1 / bitrate=1290 / ratetol=1.0 / qcomp=0.60 / qpmin=10 / qpmax=69 / qpstep=4 / vbv_maxrate=24000 / vbv_bufsize=24000 / nal_hrd=none / ip_ratio=1.40 / aq=1:1.00
Language                                 : Italian
Default                                  : Yes
Forced                                   : No
DURATION                                 : 01:46:56.661000000
NUMBER_OF_FRAMES                         : 153846
NUMBER_OF_BYTES                          : 3206735595
_STATISTICS_WRITING_APP                  : mkvmerge v11.0.0 ('Alive') 32bit
_STATISTICS_WRITING_DATE_UTC             : 2017-07-13 20:14:46
_STATISTICS_TAGS                         : BPS DURATION NUMBER_OF_FRAMES NUMBER_OF_BYTES

Audio #1
ID                                       : 2
Format                                   : AC-3
Format/Info                              : Audio Coding 3
Mode extension                           : CM (complete main)
Codec ID                                 : A_AC3
Duration                                 : 1h 46mn
Bit rate mode                            : Constant
Bit rate                                 : 448 Kbps
Channel(s)                               : 6 channels
Channel positions                        : Front: L C R, Side: L R, LFE
Sampling rate                            : 48.0 KHz
Bit depth                                : 16 bits
Compression mode                         : Lossy
Delay relative to video                  : 1mn 5s
Stream size                              : 343 MiB (20%)
Title                                    : 5.1
Language                                 : English
Default                                  : Yes
Forced                                   : No
DURATION                                 : 01:46:56.384000000
NUMBER_OF_FRAMES                         : 200512
NUMBER_OF_BYTES                          : 307986432
_STATISTICS_WRITING_APP                  : mkvmerge v11.0.0 ('Alive') 32bit
_STATISTICS_WRITING_DATE_UTC             : 2017-07-13 20:14:46
_STATISTICS_TAGS                         : BPS DURATION NUMBER_OF_FRAMES NUMBER_OF_BYTES

Audio #2
ID                                       : 3
Format                                   : AC-3
Format/Info                              : Audio Coding 3
Mode extension                           : CM (complete main)
Codec ID                                 : A_AC3
Duration                                 : 1h 46mn
Bit rate mode                            : Constant
Bit rate                                 : 448 Kbps
Channel(s)                               : 6 channels
Channel positions                        : Front: L C R, Side: L R, LFE
Sampling rate                            : 48.0 KHz
Bit depth                                : 16 bits
Compression mode                         : Lossy
Delay relative to video                  : 1mn 5s
Stream size                              : 343 MiB (20%)
Title                                    : 5.1
Language                                 : English
Default                                  : No
Forced                                   : No
DURATION                                 : 01:46:56.705000000
NUMBER_OF_FRAMES                         : 601566
NUMBER_OF_BYTES                          : 605175396
_STATISTICS_WRITING_APP                  : mkvmerge v11.0.0 ('Alive') 32bit
_STATISTICS_WRITING_DATE_UTC             : 2017-07-13 20:14:46
_STATISTICS_TAGS                         : BPS DURATION NUMBER_OF_FRAMES NUMBER_OF_BYTES

Text
ID                                       : 4
Format                                   : ASS
Codec ID                                 : S_TEXT/ASS
Codec ID/Info                            : Advanced Sub Station Alpha
Compression mode                         : Lossless
Title                                    : regular
Language                                 : English
Default                                  : No
Forced                                   : No
DURATION                                 : 01:34:54.768000000
NUMBER_OF_FRAMES                         : 885
NUMBER_OF_BYTES                          : 24691
_STATISTICS_WRITING_APP                  : mkvmerge v11.0.0 ('Alive') 32bit
_STATISTICS_WRITING_DATE_UTC             : 2017-07-13 20:14:46
_STATISTICS_TAGS                         : BPS DURATION NUMBER_OF_FRAMES NUMBER_OF_BYTES


[/spoiler]

[/center]

Info: Per scaricare devi usare un client come uTorrent o Transmission
AnnounceURL
udp://tracker.coppersurfer.tk:6969/announce
Hash 9eda594373cfc75a7a73ec5049dd34ba9a9a95d1
Peers seeds: 298 , leech: 107
Size 1.64 GB
Completato 3360x
Aggiunto 19.07.17 - 08:07:17
Uploader   robbyrs
Votazione (Voti: 0)


Condividi questo bittorrent:


html/blog:


bbcode/forum:




Aggiungi Commento


counter