* Dettagli Torrent   globale  | Commenti (0) 


- Box 314: La Rapina di Valencia (2016).H264.Italian.Spanish.Ac3.5.1.sub.ita.iCV-MIRCrew -


Download via torrent:
Categoria bittorrent BDRip
Descrizione
Box 314:  La Rapina di Valencia (2016).H264.Italian.Spanish.Ac3.5.1.sub.ita.iCV-MIRCrew

[center]by www.icv-crew.org


NO FOUND ONLY ORIGINAL RELEASE



My release is always in double track audio italian and Original audio
for select it use VLC or dvd player home
not use wmp

Box 314  La Rapina di Valencia (2016)

PRESENTI ANCHE i SOTTOTITOLI

ESTERNI IN SRT (ita)







Titolo Originale:  Cien anos de perdon
Genere:  Thriller
Regista:
Daniel Calparsoro
Titolo Distribuito per: Movies Inspired
Genere: Thriller
Nazionalità:  Spagna/Argentina
Anno di Produzione:  2016
Formato Video: 2.40:1
Durata DVD: 94 m.



Luis Tosar, Rodrigo De la Serna, Raúl Arévalo



Sei uomini armati attaccano una banca a Valencia. Il gruppo ha un’unica missione: rapinare le cassette di sicurezza e fuggire attraverso un tunnel scavato in uno degli uffici della banca. Ci sono però quei giorni in cui nulla va come previsto. La pioggia torrenziale che cade incessante sulla città ha allagato la via di fuga. Senza un piano B per una via d’uscita, la sfiducia porta a scontri duri tra i due leader della banda. Fuori, sale la tensione tra le forze di sicurezza che hanno circondato i banditi...............



A bank. A safe box. An information that it would to be shake a country.











[spoiler]
General
Unique ID                                : 285697271795054330067689721676388966068 (0xD6EF4B0728A1E093E2E27993D2791EB4)
Complete name                            : Box 314  La Rapina di Valencia (2016).H264.ita.spa.sub.ita.iCV-MIRCrew.mkv
Format                                   : Matroska
Format version                           : Version 2
File size                                : 875 MiB
Duration                                 : 1h 37mn
Overall bit rate                         : 1 262 Kbps
Encoded date                             : UTC 2017-06-09T10:00:00Z
Writing application                      : HandBrake 0.10.5 2016021100
Writing library                          : Lavf55.12.0

Video
ID                                       : 1
Format                                   : AVC
Format/Info                              : Advanced Video Codec
Format profile                           : [email protected]
Format settings, CABAC                   : Yes
Format settings, ReFrames                : 4 frames
Codec ID                                 : V_MPEG4/ISO/AVC
Duration                                 : 1h 37mn
Bit rate                                 : 597 Kbps
Width                                    : 720 pixels
Height                                   : 304 pixels
Display aspect ratio                     : 2.35:1
Frame rate mode                          : Variable
Frame rate                               : 24.000 fps
Color space                              : YUV
Chroma subsampling                       : 4:2:0
Bit depth                                : 8 bits
Scan type                                : Progressive
Bits/(Pixel*Frame)                       : 0.114
Stream size                              : 414 MiB (47%)
Writing library                          : x264 core 142 r2479 dd79a61
Encoding settings                        : cabac=1 / ref=1 / deblock=1:0:0 / analyse=0x1:0x111 / me=hex / subme=2 / psy=1 / psy_rd=1.00:0.00 / mixed_ref=0 / me_range=16 / chroma_me=1 / trellis=0 / 8x8dct=0 / cqm=0 / deadzone=21,11 / fast_pskip=1 / chroma_qp_offset=0 / threads=12 / lookahead_threads=2 / sliced_threads=0 / nr=0 / decimate=1 / interlaced=0 / bluray_compat=0 / constrained_intra=0 / bframes=3 / b_pyramid=2 / b_adapt=1 / b_bias=0 / direct=1 / weightb=1 / open_gop=0 / weightp=1 / keyint=240 / keyint_min=24 / scenecut=40 / intra_refresh=0 / rc_lookahead=10 / rc=crf / mbtree=1 / crf=20.0 / qcomp=0.60 / qpmin=0 / qpmax=69 / qpstep=4 / vbv_maxrate=20000 / vbv_bufsize=25000 / crf_max=0.0 / nal_hrd=none / filler=0 / ip_ratio=1.40 / aq=1:1.00
Default                                  : Yes
Forced                                   : No
Color primaries                          : BT.709-5, BT.1361, IEC 61966-2-4, SMPTE RP177
Transfer characteristics                 : BT.709-5, BT.1361
Matrix coefficients                      : BT.709-5, BT.1361, IEC 61966-2-4 709, SMPTE RP177

Audio #1
ID                                       : 2
Format                                   : AC-3
Format/Info                              : Audio Coding 3
Mode extension                           : CM (complete main)
Codec ID                                 : A_AC3
Duration                                 : 1h 37mn
Bit rate mode                            : Constant
Bit rate                                 : 448 Kbps
Channel(s)                               : 6 channels
Channel positions                        : Front: L C R, Side: L R, LFE
Sampling rate                            : 48.0 KHz
Bit depth                                : 16 bits
Compression mode                         : Lossy
Delay relative to video                  : 1mn 5s
Stream size                              : 311 MiB (36%)
Title                                    : Surround
Language                                 : Italian
Default                                  : Yes
Forced                                   : No

Audio #2
ID                                       : 3
Format                                   : AC-3
Format/Info                              : Audio Coding 3
Mode extension                           : CM (complete main)
Codec ID                                 : A_AC3
Duration                                 : 1h 37mn
Bit rate mode                            : Constant
Bit rate                                 : 192 Kbps
Channel(s)                               : 2 channels
Channel positions                        : Front: L R
Sampling rate                            : 48.0 KHz
Bit depth                                : 16 bits
Compression mode                         : Lossy
Delay relative to video                  : 1mn 5s
Stream size                              : 133 MiB (15%)
Title                                    : Stereo
Language                                 : Spanish
Default                                  : No
Forced                                   : No

Text #1
ID                                       : 4
Format                                   : ASS
Codec ID                                 : S_TEXT/ASS
Codec ID/Info                            : Advanced Sub Station Alpha
Compression mode                         : Lossless
Language                                 : Italian
Default                                  : No
Forced                                   : No

Text #2
ID                                       : 5
Format                                   : ASS
Codec ID                                 : S_TEXT/ASS
Codec ID/Info                            : Advanced Sub Station Alpha
Compression mode                         : Lossless
Language                                 : Italian
Default                                  : No
Forced                                   : No

Menu
00:00:00.000                             : :00:00:00.000
00:07:05.458                             : :00:07:05.342
00:14:28.291                             : :00:14:28.201
00:20:13.958                             : :00:20:13.838
00:29:27.250                             : :00:29:27.099
00:39:02.750                             : :00:39:02.590
00:50:57.125                             : :00:50:56.804
00:59:53.000                             : :00:59:52.756
01:08:53.500                             : :01:08:53.129
01:16:20.125                             : :01:16:19.950
01:25:27.791                             : :01:25:27.706
01:35:23.583                             : :01:35:23.259


[/spoiler]

[/center]

Info: Per scaricare devi usare un client come uTorrent o Transmission
AnnounceURL
udp://tracker.coppersurfer.tk:6969/announce
Hash 3a4bcde2502e9d93a9e72c0a695075aa8c847862
Peers seeds: 103 , leech: 9
Size 875.57 MB
Completato 1750x
Aggiunto 19.07.17 - 08:07:22
Uploader   robbyrs
Votazione (Voti: 0)


Condividi questo bittorrent:


html/blog:


bbcode/forum:




Aggiungi Commento


counter