* Dettagli Torrent   globale  | Commenti (0) 


- Contract To Kill - Steven Seagal (2016).H264.Italian.English.Ac3.5.1.sub.ita.iCV-MIRCrew -


Download via torrent:
Categoria bittorrent BDRip
Descrizione
Contract To Kill - Steven Seagal (2016).H264.Italian.English.Ac3.5.1.sub.ita.iCV-MIRCrew


[center]by www.icv-crew.org


NO FOUND ONLY ORIGINAL RELEASE



My release is always in double track audio italian and Original audio
for select it use VLC or dvd player home
not use wmp

Contract To Kill (2016)

PRESENTI ANCHE i SOTTOTITOLI

ESTERNI IN SRT (ita)







GENERE: Azione
ANNO: 2016
REGIA: Keoni Waxman
PAESE: Romania
DISTRIBUZIONE: Daro Film Distribution, Actionhouse Pictures



Steven Seagal, Russell Wong, Sergiu Costache



Steven Seagal è agente della CIA e della DEA intento a far sputare il rospo ad alcuni terroristi catturati in Messico. Le sue indagini lo porteranno a Istanbul, dove scoprirà e sventerà un complotto ai danni dell'America intera..........



Harmon is a CIA/DEA enforcer investigating Arab terrorists captured in Mexico. With his team--seductive FBI agent Zara and spy-drone pilot Sharp--he flies to Istanbul and uncovers a brutal ..













[spoiler]
General
Unique ID                                : 241507133434453751321654565137377932324 (0xB5B094FE5FFD3E8F2AC90793B0883424)
Complete name                            : Contract To Kill (2016).H264.ita.eng.sub.ita.iCV-MIRCrew.mkv
Format                                   : Matroska
Format version                           : Version 2
File size                                : 1.42 GiB
Duration                                 : 1h 33mn
Overall bit rate                         : 2 184 Kbps
Movie name                               : www.icv-crew.org
Encoded date                             : UTC 2017-06-10 05:10:16
Writing application                      : Lavf54.63.100
Writing library                          : Lavf54.63.100
COPYRIGHT                                : robbyrs
DATE                                     : 2017

Video
ID                                       : 1
Format                                   : AVC
Format/Info                              : Advanced Video Codec
Format profile                           : [email protected]
Format settings, CABAC                   : Yes
Format settings, ReFrames                : 2 frames
Codec ID                                 : V_MPEG4/ISO/AVC
Duration                                 : 1h 33mn
Bit rate                                 : 1 290 Kbps
Width                                    : 720 pixels
Height                                   : 304 pixels
Display aspect ratio                     : 2.40:1
Frame rate mode                          : Variable
Frame rate                               : 23.976 fps
Color space                              : YUV
Chroma subsampling                       : 4:2:0
Bit depth                                : 8 bits
Scan type                                : Progressive
Bits/(Pixel*Frame)                       : 0.246
Stream size                              : 828 MiB (57%)
Title                                    : BjL BDRip 1080p [Avg.DRF=18.38]
Writing library                          : x264 core 130 r2273
Encoding settings                        : cabac=1 / ref=2 / deblock=1:0:0 / analyse=0x1:0x131 / me=hex / subme=7 / psy=1 / psy_rd=1.00:0.00 / mixed_ref=0 / me_range=16 / chroma_me=1 / trellis=1 / 8x8dct=0 / cqm=0 / deadzone=21,11 / fast_pskip=1 / chroma_qp_offset=-2 / threads=12 / lookahead_threads=2 / sliced_threads=0 / nr=0 / decimate=1 / interlaced=0 / bluray_compat=0 / constrained_intra=0 / bframes=3 / b_pyramid=0 / b_adapt=1 / b_bias=0 / direct=3 / weightb=1 / open_gop=0 / weightp=2 / keyint=230 / keyint_min=23 / scenecut=40 / intra_refresh=0 / rc_lookahead=40 / rc=abr / mbtree=1 / bitrate=1290 / ratetol=1.0 / qcomp=0.60 / qpmin=10 / qpmax=69 / qpstep=4 / vbv_maxrate=24000 / vbv_bufsize=24000 / nal_hrd=none / ip_ratio=1.40 / aq=1:1.00
Language                                 : Italian
Default                                  : Yes
Forced                                   : No
DURATION                                 : 01:33:02.494000000
NUMBER_OF_FRAMES                         : 133846
NUMBER_OF_BYTES                          : 5729577520
_STATISTICS_WRITING_APP                  : mkvmerge v8.3.0 ('Over the Horizon') 64bit
_STATISTICS_WRITING_DATE_UTC             : 2017-06-10 05:10:16
_STATISTICS_TAGS                         : BPS DURATION NUMBER_OF_FRAMES NUMBER_OF_BYTES

Audio #1
ID                                       : 2
Format                                   : AC-3
Format/Info                              : Audio Coding 3
Mode extension                           : CM (complete main)
Codec ID                                 : A_AC3
Duration                                 : 1h 33mn
Bit rate mode                            : Constant
Bit rate                                 : 448 Kbps
Channel(s)                               : 6 channels
Channel positions                        : Front: L C R, Side: L R, LFE
Sampling rate                            : 48.0 KHz
Bit depth                                : 16 bits
Compression mode                         : Lossy
Delay relative to video                  : 1mn 5s
Stream size                              : 298 MiB (21%)
Title                                    : Italiano AC3 5.1
Language                                 : Italian
Default                                  : Yes
Forced                                   : No
DURATION                                 : 01:33:02.560000000
NUMBER_OF_FRAMES                         : 174455
NUMBER_OF_BYTES                          : 446604800
_STATISTICS_WRITING_APP                  : mkvmerge v8.3.0 ('Over the Horizon') 64bit
_STATISTICS_WRITING_DATE_UTC             : 2017-06-10 05:10:16
_STATISTICS_TAGS                         : BPS DURATION NUMBER_OF_FRAMES NUMBER_OF_BYTES

Audio #2
ID                                       : 3
Format                                   : AC-3
Format/Info                              : Audio Coding 3
Mode extension                           : CM (complete main)
Codec ID                                 : A_AC3
Duration                                 : 1h 33mn
Bit rate mode                            : Constant
Bit rate                                 : 448 Kbps
Channel(s)                               : 6 channels
Channel positions                        : Front: L C R, Side: L R, LFE
Sampling rate                            : 48.0 KHz
Bit depth                                : 16 bits
Compression mode                         : Lossy
Delay relative to video                  : 1mn 5s
Stream size                              : 298 MiB (21%)
Title                                    : English AC3 5.1
Language                                 : English
Default                                  : No
Forced                                   : No
DURATION                                 : 01:33:02.560000000
NUMBER_OF_FRAMES                         : 174455
NUMBER_OF_BYTES                          : 446604800
_STATISTICS_WRITING_APP                  : mkvmerge v8.3.0 ('Over the Horizon') 64bit
_STATISTICS_WRITING_DATE_UTC             : 2017-06-10 05:10:16
_STATISTICS_TAGS                         : BPS DURATION NUMBER_OF_FRAMES NUMBER_OF_BYTES


Text #2
ID                                       : 5
Format                                   : ASS
Codec ID                                 : S_TEXT/ASS
Codec ID/Info                            : Advanced Sub Station Alpha
Compression mode                         : Lossless
Title                                    : Italiano Normal
Language                                 : Italian
Default                                  : No
Forced                                   : No
DURATION                                 : 01:28:56.748000000
NUMBER_OF_FRAMES                         : 873
NUMBER_OF_BYTES                          : 31268
_STATISTICS_WRITING_APP                  : mkvmerge v8.3.0 ('Over the Horizon') 64bit
_STATISTICS_WRITING_DATE_UTC             : 2017-06-10 05:10:16
_STATISTICS_TAGS                         : BPS DURATION NUMBER_OF_FRAMES NUMBER_OF_BYTES

Menu
00:00:00.000                             : :00:00:00.000
00:04:47.621                             : :00:04:47.621
00:11:51.085                             : :00:11:51.085
00:15:51.284                             : :00:15:51.284
00:20:21.804                             : :00:20:21.804
00:24:57.121                             : :00:24:57.121
00:31:23.882                             : :00:31:23.882
00:34:49.254                             : :00:34:49.254
00:40:00.481                             : :00:40:00.481
00:45:03.451                             : :00:45:03.451
00:53:16.068                             : :00:53:16.068
01:01:40.572                             : :01:01:40.572
01:08:38.114                             : :01:08:38.114
01:15:18.431                             : :01:15:18.431
01:22:36.118                             : :01:22:36.118
01:27:40.881                             : :01:27:40.881


[/spoiler]

[/center]

Info: Per scaricare devi usare un client come uTorrent o Transmission
AnnounceURL
udp://tracker.coppersurfer.tk:6969/announce
Hash 4f4cd7994505fa226643299d1e4736e34a732991
Peers seeds: 80 , leech: 12
Size 1.42 GB
Completato 1331x
Aggiunto 19.07.17 - 07:07:18
Uploader   robbyrs
Votazione (Voti: 0)


Condividi questo bittorrent:


html/blog:


bbcode/forum:




Aggiungi Commento


counter