* Dettagli Torrent   globale  | Commenti (0) 


- Amori ed inganni (2016).XviD.Italian.English.Ac3.5.1.sub.ita.eng.iCV-MIRCrew -


Download via torrent:
Categoria bittorrent BDRip
Descrizione
Love & Friendship - Amori ed inganni (2016).XviD.Italian.English.Ac3.5.1.sub.ita.eng.iCV-MIRCrew


[center]by www.icv-crew.org


NO FOUND ONLY ORIGINAL RELEASE



My release is always in double track audio italian and Original audio
for select it use VLC or dvd player home
not use wmp

Amori ed inganni -  Love & Friendship (2016)







   DATA USCITA: 01 dicembre 2016
   GENERE: Commedia, Drammatico, Sentimentale
   ANNO: 2016
   REGIA: Whit Stillman
   SCENEGGIATURA: Whit Stillman
   FOTOGRAFIA: Richard Van Oosterhout
   MONTAGGIO: Sophie Corra
   MUSICHE: Benjamin Esdraffo
   PRODUZIONE: Westerly Films, Blinder Films, Centre National de la Cinématographie et de l'Image Animée
   DISTRIBUZIONE: Academy Two
   PAESE: Gran Bretagna
   DURATA: 92 Min



Kate Beckinsale, Chloë Sevigny, Xavier Samuel, Morfydd Clark, Jenn Murray, Stephen Fry



Ispirato ad un racconto di Jane Austen, Amore e inganni (Love&Friendship) è la storia di una giovane e scaltra vedova Lady Susan Vernon (Kate Beckinsale) che per scoprire nuovi pettegolezzi che circolano nell'alta società, decide di trascorrere una vacanza a Churchill, una lussuosa tenuta proprietà della famiglia del marito...............



Lady Susan Vernon takes up temporary residence at her in-laws' estate and, while there, is determined to be a matchmaker for her daughter Frederica -- and herself too, naturally.











[spoiler]
General
Complete name                            : Amori ed inganni -  Love & Friendship (2016).ita.eng.sub.ita.eng.iCV-MIRCrew.avi
Format                                   : AVI
Format/Info                              : Audio Video Interleave
File size                                : 1.57 GiB
Duration                                 : 1h 33mn
Overall bit rate                         : 2 408 Kbps
Movie name                               : Amori ed inganni
Writing application                      : VirtualDubMod 1.5.10.2 (build 2540/release)
Writing library                          : VirtualDubMod build 2540/release
Copyright                                : robbyrs

Video
ID                                       : 0
Format                                   : MPEG-4 Visual
Format profile                           : [email protected]
Format settings, BVOP                    : No
Format settings, QPel                    : No
Format settings, GMC                     : No warppoints
Format settings, Matrix                  : Default (H.263)
Codec ID                                 : XVID
Codec ID/Hint                            : XviD
Duration                                 : 1h 33mn
Bit rate                                 : 1 498 Kbps
Width                                    : 720 pixels
Height                                   : 384 pixels
Display aspect ratio                     : 1.875
Frame rate                               : 23.976 fps
Color space                              : YUV
Chroma subsampling                       : 4:2:0
Bit depth                                : 8 bits
Scan type                                : Progressive
Compression mode                         : Lossy
Bits/(Pixel*Frame)                       : 0.226
Stream size                              : 1 000 MiB (62%)
Writing library                          : XviD 64

Audio #1
ID                                       : 1
Format                                   : AC-3
Format/Info                              : Audio Coding 3
Mode extension                           : CM (complete main)
Codec ID                                 : 2000
Duration                                 : 1h 33mn
Bit rate mode                            : Constant
Bit rate                                 : 448 Kbps
Channel(s)                               : 6 channels
Channel positions                        : Front: L C R, Side: L R, LFE
Sampling rate                            : 48.0 KHz
Bit depth                                : 16 bits
Compression mode                         : Lossy
Stream size                              : 299 MiB (19%)
Alignment                                : Split accross interleaves
Interleave, duration                     : 42 ms (1.00 video frame)
Interleave, preload duration             : 500 ms

Audio #2
ID                                       : 2
Format                                   : AC-3
Format/Info                              : Audio Coding 3
Mode extension                           : CM (complete main)
Codec ID                                 : 2000
Duration                                 : 1h 33mn
Bit rate mode                            : Constant
Bit rate                                 : 448 Kbps
Channel(s)                               : 2 channels
Channel positions                        : Front: L R
Sampling rate                            : 48.0 KHz
Bit depth                                : 16 bits
Compression mode                         : Lossy
Stream size                              : 299 MiB (19%)
Alignment                                : Split accross interleaves
Interleave, duration                     : 42 ms (1.00 video frame)
Interleave, preload duration             : 500 ms


[/spoiler]

[/center]

Info: Per scaricare devi usare un client come uTorrent o Transmission
AnnounceURL
udp://tracker.coppersurfer.tk:6969/announce
Hash c429e3e7de99838d9674da894bdb938c2e213d45
Peers seeds: 55 , leech: 14
Size 1.57 GB
Completato 858x
Aggiunto 17.07.17 - 11:07:40
Uploader   robbyrs
Votazione (Voti: 0)


Condividi questo bittorrent:


html/blog:


bbcode/forum:




Aggiungi Commento


counter