* Dettagli Torrent   globale  | Commenti (0) 


- Autopsy (2016).H264.Italian.English.Ac3.5.1.sub.ita.iCV-MIRCrew -


Download via torrent:
Categoria bittorrent BDRip
Descrizione
The Autopsy of Jane Doe - Autopsy (2016).H264.Italian.English.Ac3.5.1.sub.ita.iCV-MIRCrew

[center]by www.icv-crew.org


NO FOUND ONLY ORIGINAL RELEASE



My release is always in double track audio italian and Original audio
for select it use VLC or dvd player home
not use wmp

Autopsy - The Autopsy of Jane Doe (2016)

PRESENTI ANCHE i SOTTOTITOLI

ESTERNI IN SRT (ita)







Riconoscimenti

   2016 - Toronto International Film Festival
       Secondo posto al Premio del pubblico nella sezione "Midnight Madness"
   2016 - Fantastic Fest
       Miglior film horror
   2016 - Festival internazionale del cinema fantastico della Catalogna
       Premio speciale della giuria


Titolo originale The Autopsy of Jane Doe
Paese di produzione Stati Uniti d'America
Anno 2016
Durata 86 min
Genere orrore
Regia André Øvredal
Sceneggiatura Ian Goldberg, Richard Naing
Produttore Fred Berger, Eric Garcia, Ben Pugh, Rory Aitken
Casa di produzione 42, IM Global, Impostor Pictures
Distribuzione (Italia) M2 Pictures
Fotografia Romain Osin
Montaggio Patrick Larsgaard
Musiche Danny Bensi, Saunder Jurriaans




   Emile Hirsch: Austin Tilden
   Brian Cox: Tommy Tilden
   Ophelia Lovibond: Emma
   Michael McElhatton: sceriffo Sheldon Burke
   Olwen Kelly: Jane Doe




Virginia, Stati Uniti. Un cadavere di una giovane donna non identificata viene trovato semi-sepolto nel seminterrato di una casa in cui si è verificato un cruento pluri-omicidio, anomalo sotto più aspetti: alcun segno di effrazione, causa della morte incerta e movente non apparente. Nella piccola cittadina il medico legale Tommy Tilden porta avanti l’obitorio-crematorio costruito e ampliato da generazioni sotto la casa di famiglia, assistito dal figlio Austin.................................



A father and son, both coroners, are pulled into a complex mystery while attempting to identify the body of a young woman, who was apparently harboring dark secrets.








[spoiler]
General
Unique ID                                : 273283168188698052327868633871124141538 (0xCD986C770627576C1028000EB37615E2)
Complete name                            : Autopsy (2016).H264.ita.eng.sub.ita.iCV-MIRCrew.mkv
Format                                   : Matroska
Format version                           : Version 2
File size                                : 1.31 GiB
Duration                                 : 1h 26mn
Overall bit rate                         : 2 171 Kbps
Movie name                               : www.icv-crew.org
Encoded date                             : UTC 2017-07-15 08:51:52
Writing application                      : Lavf54.63.100
Writing library                          : Lavf54.63.100
COPYRIGHT                                : robbyrs

Video
ID                                       : 1
Format                                   : AVC
Format/Info                              : Advanced Video Codec
Format profile                           : [email protected]
Format settings, CABAC                   : Yes
Format settings, ReFrames                : 2 frames
Codec ID                                 : V_MPEG4/ISO/AVC
Duration                                 : 1h 26mn
Bit rate                                 : 1 290 Kbps
Width                                    : 720 pixels
Height                                   : 300 pixels
Display aspect ratio                     : 2.40:1
Frame rate mode                          : Variable
Frame rate                               : 23.976 fps
Color space                              : YUV
Chroma subsampling                       : 4:2:0
Bit depth                                : 8 bits
Scan type                                : Progressive
Bits/(Pixel*Frame)                       : 0.249
Stream size                              : 762 MiB (57%)
Writing library                          : x264 core 130 r2273
Encoding settings                        : cabac=1 / ref=2 / deblock=1:0:0 / analyse=0x1:0x131 / me=hex / subme=7 / psy=1 / psy_rd=1.00:0.00 / mixed_ref=0 / me_range=16 / chroma_me=1 / trellis=1 / 8x8dct=0 / cqm=0 / deadzone=21,11 / fast_pskip=1 / chroma_qp_offset=-2 / threads=12 / lookahead_threads=2 / sliced_threads=0 / nr=0 / decimate=1 / interlaced=0 / bluray_compat=0 / constrained_intra=0 / bframes=3 / b_pyramid=0 / b_adapt=1 / b_bias=0 / direct=3 / weightb=1 / open_gop=0 / weightp=2 / keyint=230 / keyint_min=23 / scenecut=40 / intra_refresh=0 / rc_lookahead=40 / rc=abr / mbtree=1 / bitrate=1290 / ratetol=1.0 / qcomp=0.60 / qpmin=10 / qpmax=69 / qpstep=4 / vbv_maxrate=24000 / vbv_bufsize=24000 / nal_hrd=none / ip_ratio=1.40 / aq=1:1.00
Language                                 : Italian
Default                                  : Yes
Forced                                   : No
DURATION                                 : 01:26:26.557000000
NUMBER_OF_FRAMES                         : 124353
NUMBER_OF_BYTES                          : 9339262947
_STATISTICS_WRITING_APP                  : mkvmerge v8.7.0 ('All of the above') 64bit
_STATISTICS_WRITING_DATE_UTC             : 2017-07-12 14:58:52
_STATISTICS_TAGS                         : BPS DURATION NUMBER_OF_FRAMES NUMBER_OF_BYTES

Audio #1
ID                                       : 2
Format                                   : AC-3
Format/Info                              : Audio Coding 3
Mode extension                           : CM (complete main)
Codec ID                                 : A_AC3
Duration                                 : 1h 26mn
Bit rate mode                            : Constant
Bit rate                                 : 448 Kbps
Channel(s)                               : 6 channels
Channel positions                        : Front: L C R, Side: L R, LFE
Sampling rate                            : 48.0 KHz
Bit depth                                : 16 bits
Compression mode                         : Lossy
Delay relative to video                  : 1mn 5s
Stream size                              : 277 MiB (21%)
Title                                    : AC3 ITA
Language                                 : Italian
Default                                  : No
Forced                                   : No
DURATION                                 : 01:26:26.592000000
NUMBER_OF_FRAMES                         : 162081
NUMBER_OF_BYTES                          : 414927360
_STATISTICS_WRITING_APP                  : mkvmerge v8.7.0 ('All of the above') 64bit
_STATISTICS_WRITING_DATE_UTC             : 2017-07-12 14:58:52
_STATISTICS_TAGS                         : BPS DURATION NUMBER_OF_FRAMES NUMBER_OF_BYTES

Audio #2
ID                                       : 3
Format                                   : AC-3
Format/Info                              : Audio Coding 3
Mode extension                           : CM (complete main)
Codec ID                                 : A_AC3
Duration                                 : 1h 26mn
Bit rate mode                            : Constant
Bit rate                                 : 448 Kbps
Channel(s)                               : 6 channels
Channel positions                        : Front: L C R, Side: L R, LFE
Sampling rate                            : 48.0 KHz
Bit depth                                : 16 bits
Compression mode                         : Lossy
Delay relative to video                  : 1mn 5s
Stream size                              : 277 MiB (21%)
Title                                    : AC3 ENG
Language                                 : English
Default                                  : No
Forced                                   : No
DURATION                                 : 01:26:26.592000000
NUMBER_OF_FRAMES                         : 162081
NUMBER_OF_BYTES                          : 414927360
_STATISTICS_WRITING_APP                  : mkvmerge v8.7.0 ('All of the above') 64bit
_STATISTICS_WRITING_DATE_UTC             : 2017-07-12 14:58:52
_STATISTICS_TAGS                         : BPS DURATION NUMBER_OF_FRAMES NUMBER_OF_BYTES

Text #1
ID                                       : 4
Format                                   : ASS
Codec ID                                 : S_TEXT/ASS
Codec ID/Info                            : Advanced Sub Station Alpha
Compression mode                         : Lossless
Title                                    : Forced
Language                                 : Italian
Default                                  : Yes
Forced                                   : No
DURATION                                 : 00:15:53.496000000
NUMBER_OF_FRAMES                         : 2
NUMBER_OF_BYTES                          : 44
_STATISTICS_WRITING_APP                  : mkvmerge v8.7.0 ('All of the above') 64bit
_STATISTICS_WRITING_DATE_UTC             : 2017-07-12 14:58:52
_STATISTICS_TAGS                         : BPS DURATION NUMBER_OF_FRAMES NUMBER_OF_BYTES

Text #2
ID                                       : 5
Format                                   : ASS
Codec ID                                 : S_TEXT/ASS
Codec ID/Info                            : Advanced Sub Station Alpha
Compression mode                         : Lossless
Title                                    : Regular
Language                                 : Italian
Default                                  : No
Forced                                   : No
DURATION                                 : 01:24:24.398000000
NUMBER_OF_FRAMES                         : 652
NUMBER_OF_BYTES                          : 21479
_STATISTICS_WRITING_APP                  : mkvmerge v8.7.0 ('All of the above') 64bit
_STATISTICS_WRITING_DATE_UTC             : 2017-07-12 14:58:52
_STATISTICS_TAGS                         : BPS DURATION NUMBER_OF_FRAMES NUMBER_OF_BYTES



[/spoiler]

[/center]

Info: Per scaricare devi usare un client come uTorrent o Transmission
AnnounceURL
udp://tracker.coppersurfer.tk:6969/announce
Hash 6ff08bd7d290fb39a89fd963cbaa94ebe299cd46
Peers seeds: 52 , leech: 17
Size 1.31 GB
Completato 882x
Aggiunto 17.07.17 - 10:07:03
Uploader   robbyrs
Votazione (Voti: 0)


Condividi questo bittorrent:


html/blog:


bbcode/forum:




Aggiungi Commento


counter