* Dettagli Torrent   globale  | Commenti (0) 


- I.Love.Dick.S01.iTA.AC3.WEBMux.x264-ADE.CreW -


Download via torrent:
Categoria bittorrent SerieTv
Descrizione
[center]
I LOVE DICK
STAGIONE  1
WEBMux.x264-ADE.CreW
Trovi tutte le nostre serie su
IL CORSARO VERDE
www.icv-crew.org




.: Dati Serie :.

Nazione: USA
Anno: 2016
Genere: commedia
Stagioni: 1
Episodi: 8
Durata: 30 (episodio)
Lingua: ITA ENG
Interpreti e personaggi
• Kevin Bacon: Dick
• Kathryn Hahn: Chris
• Griffin Dunne: Sylvere
• Roberta Colindrez: Devon
• India Menuez: Toby

Nella colorita comunità accademica di Marfa, in Texas, una coppia sposata appena trasferitasi da New York, Chris e Sylvere, si ritrova ossessionata da un carismatico professore di nome Dick. Un artista celebrato e un misterioso cowboy, Dick diventa un'insolita fantasia per entrambi dopo una serata trascorsa insieme, creando tensioni nel matrimonio di Chris e Sylvere. Tuttavia, attraverso questa fissazione, i due affrontano un viaggio che li aiuta a scoprire se stessi e - sorprendentemente - avvicinarsi.

[center].: Screenshot :.

 

.: Caratteristiche Tecniche :.[/center]

Code


I.Love.Dick.S01.iTA.AC3.WEBMux.x264-ADE.CreW/I.Love.Dick.1x01.Pilot.iTA.AC3.WEBMux.x264-ADE.CreW.mkv
Format                                   : Matroska
Format version                           : Version 2
File size                                : 263 MiB
Duration                                 : 29mn 31s
Overall bit rate                         : 1 243 Kbps
Encoded date                             : UTC 2017-06-26 18:49:07
Writing application                      : mkvmerge v5.6.0 ('Kenya Kane') built on May 28 2012 06:47:39
Writing library                          : libebml v1.2.2 + libmatroska v1.3.0

Video
ID                                       : 1
Format                                   : AVC
Format/Info                              : Advanced Video Codec
Format profile                           : [email protected]
Format settings, CABAC                   : Yes
Format settings, ReFrames                : 4 frames
Muxing mode                              : Header stripping
Codec ID                                 : V_MPEG4/ISO/AVC
Duration                                 : 29mn 31s
Bit rate                                 : 1 050 Kbps
Width                                    : 720 pixels
Height                                   : 360 pixels
Display aspect ratio                     : 2.000
Frame rate mode                          : Variable
Frame rate                               : 23.976 fps
Color space                              : YUV
Chroma subsampling                       : 4:2:0
Bit depth                                : 8 bits
Scan type                                : Progressive
Bits/(Pixel*Frame)                       : 0.169
Stream size                              : 217 MiB (83%)
Writing library                          : x264 core 142 r2479 dd79a61
Encoding settings                        : cabac=1 / ref=4 / deblock=1:0:0 / analyse=0x3:0x113 / me=hex / subme=7 / psy=1 / psy_rd=1.00:0.00 / mixed_ref=1 / me_range=16 / chroma_me=1 / trellis=1 / 8x8dct=1 / cqm=0 / deadzone=21,11 / fast_pskip=1 / chroma_qp_offset=-2 / threads=12 / lookahead_threads=2 / sliced_threads=0 / nr=0 / decimate=1 / interlaced=0 / bluray_compat=0 / constrained_intra=0 / bframes=3 / b_pyramid=2 / b_adapt=1 / b_bias=0 / direct=1 / weightb=1 / open_gop=0 / weightp=2 / keyint=240 / keyint_min=24 / scenecut=40 / intra_refresh=0 / rc_lookahead=40 / rc=2pass / mbtree=1 / bitrate=1050 / ratetol=1.0 / qcomp=0.60 / qpmin=0 / qpmax=69 / qpstep=4 / cplxblur=20.0 / qblur=0.5 / vbv_maxrate=62500 / vbv_bufsize=78125 / nal_hrd=none / filler=0 / ip_ratio=1.40 / aq=1:1.00
Default                                  : Yes
Forced                                   : No
Color primaries                          : BT.709-5, BT.1361, IEC 61966-2-4, SMPTE RP177
Transfer characteristics                 : BT.709-5, BT.1361
Matrix coefficients                      : BT.709-5, BT.1361, IEC 61966-2-4 709, SMPTE RP177

Audio
ID                                       : 2
Format                                   : AC-3
Format/Info                              : Audio Coding 3
Mode extension                           : CM (complete main)
Muxing mode                              : Header stripping
Codec ID                                 : A_AC3
Duration                                 : 29mn 31s
Bit rate mode                            : Constant
Bit rate                                 : 192 Kbps
Channel(s)                               : 2 channels
Channel positions                        : Front: L R
Sampling rate                            : 48.0 KHz
Bit depth                                : 16 bits
Compression mode                         : Lossy
Delay relative to video                  : -146ms
Stream size                              : 40.5 MiB (15%)
Language                                 : Italian
Default                                  : Yes
Forced                                   : No

Text
ID                                       : 3
Format                                   : UTF-8
Codec ID                                 : S_TEXT/UTF8
Codec ID/Info                            : UTF-8 Plain Text
Title                                    : FORCED
Language                                 : Italian
Default                                  : Yes
Forced                                   : No



[center]RINGRAZIAMENTI





[/center]
Info: Per scaricare devi usare un client come uTorrent o Transmission
AnnounceURL
udp://tracker.opentrackr.org:1337/announce
Hash 67398da2324b5a0090770ec22546c52c0c81ff38
Peers seeds: 4 , leech: 4
Size 1.79 GB
Completato 32x
Aggiunto 15.07.17 - 10:07:53
Uploader   ppb1
Votazione (Voti: 0)


Condividi questo bittorrent:


html/blog:


bbcode/forum:




Aggiungi Commento


counter