* Dettagli Torrent   globale  | Commenti (0) 


- Life - Non Oltrepassare Il Limite (2017).H264.Italian.English.Ac3.5.1.sub.ita.eng.iCV-MIRCrew -


Download via torrent:
Categoria bittorrent BDRip
Descrizione
Life - Non Oltrepassare Il Limite (2017).H264.Italian.English.Ac3.5.1.sub.ita.eng.iCV-MIRCrew

[center]by www.icv-crew.org


NO FOUND ONLY ORIGINAL RELEASE



My release is always in double track audio italian and Original audio
for select it use VLC or dvd player home
not use wmp

Life - Non Oltrepassare Il Limite (2017)

PRESENTI ANCHE i SOTTOTITOLI

ESTERNI IN SRT (ita/eng)







Titolo originale Life
Lingua originale inglese
Paese di produzione Stati Uniti d'America
Anno 2017
Durata 103 min
Rapporto 2,35 : 1
Genere thriller, fantascienza, orrore, drammatico
Regia Daniel Espinosa
Sceneggiatura Rhett Reese, Paul Wernick
Produttore David Ellison, Dana Goldberg, Bonnie Curtis, Julie Lynn
Produttore esecutivo Don Granger, Vicki Dee Rock
Casa di produzione Columbia Pictures, Skydance
Distribuzione (Italia) Warner Bros.
Fotografia Seamus McGarvey
Montaggio Simon Burchell, Frances Parker
Musiche Jon Ekstrand
Scenografia Nigel Phelps




   Jake Gyllenhaal: David Jordan
   Rebecca Ferguson: Miranda North
   Ryan Reynolds: Roy Adams
   Olga Dihovichnaya: Ekaterina Golovkina
   Hiroyuki Sanada: Sho Kendo
   Ariyon Bakare: Hugh Derry




L'equipaggio della Stazione Spaziale Internazionale riesce con successo a recuperare una sonda alla deriva proveniente da Marte. Il team, composto dal biologo Hugh Derry, l'ufficiale Miranda North, il comandante Ekaterina Golovkina, il tecnico Sho Murakami, l'ingegnere Roy Adams e il dottor David Jordan sono incaricati di studiare il campione recuperato dalla sonda per trovare possibili forme di vita extraterrestre................



A team of scientists aboard the International Space Station discover a rapidly evolving life form, that caused extinction on Mars, and now threatens the crew and all life on Earth.

















[spoiler]
General
Unique ID                                : 23131947798263709291487187246284280149 (0x11670D1479806F554B6E098550AC1155)
Complete name                            : Life - Non Oltrepassare Il Limite (2017).Ita.eng.sub.ita.eng.iCV-MIRCrew.mkv
Format                                   : Matroska
Format version                           : Version 2
File size                                : 1.43 GiB
Duration                                 : 1h 43mn
Overall bit rate                         : 1 971 Kbps
Movie name                               : www.icv-crew.org
Encoded date                             : UTC 2017-07-11 15:19:37
Writing application                      : Lavf54.63.100
Writing library                          : Lavf54.63.100
COPYRIGHT                                : robbyrs

Video
ID                                       : 1
Format                                   : AVC
Format/Info                              : Advanced Video Codec
Format profile                           : [email protected]
Format settings, CABAC                   : Yes
Format settings, ReFrames                : 2 frames
Codec ID                                 : V_MPEG4/ISO/AVC
Duration                                 : 1h 43mn
Bit rate                                 : 1 164 Kbps
Nominal bit rate                         : 1 290 Kbps
Width                                    : 720 pixels
Height                                   : 304 pixels
Display aspect ratio                     : 2.40:1
Frame rate mode                          : Variable
Frame rate                               : 23.976 fps
Color space                              : YUV
Chroma subsampling                       : 4:2:0
Bit depth                                : 8 bits
Scan type                                : Progressive
Bits/(Pixel*Frame)                       : 0.222
Stream size                              : 866 MiB (59%)
Writing library                          : x264 core 130 r2273
Encoding settings                        : cabac=1 / ref=2 / deblock=1:0:0 / analyse=0x1:0x131 / me=hex / subme=7 / psy=1 / psy_rd=1.00:0.00 / mixed_ref=0 / me_range=16 / chroma_me=1 / trellis=1 / 8x8dct=0 / cqm=0 / deadzone=21,11 / fast_pskip=1 / chroma_qp_offset=-2 / threads=12 / lookahead_threads=2 / sliced_threads=0 / nr=0 / decimate=1 / interlaced=0 / bluray_compat=0 / constrained_intra=0 / bframes=3 / b_pyramid=0 / b_adapt=1 / b_bias=0 / direct=3 / weightb=1 / open_gop=0 / weightp=2 / keyint=230 / keyint_min=23 / scenecut=40 / intra_refresh=0 / rc_lookahead=40 / rc=abr / mbtree=1 / bitrate=1290 / ratetol=1.0 / qcomp=0.60 / qpmin=10 / qpmax=69 / qpstep=4 / vbv_maxrate=24000 / vbv_bufsize=24000 / nal_hrd=none / ip_ratio=1.40 / aq=1:1.00
Language                                 : Italian
Default                                  : Yes
Forced                                   : No
DURATION                                 : 01:43:58.191000000
NUMBER_OF_FRAMES                         : 149567
NUMBER_OF_BYTES                          : 6506204127
_STATISTICS_WRITING_APP                  : mkvmerge v8.7.0 ('All of the above') 64bit
_STATISTICS_WRITING_DATE_UTC             : 2017-07-07 17:00:41
_STATISTICS_TAGS                         : BPS DURATION NUMBER_OF_FRAMES NUMBER_OF_BYTES

Audio #1
ID                                       : 2
Format                                   : AC-3
Format/Info                              : Audio Coding 3
Mode extension                           : CM (complete main)
Codec ID                                 : A_AC3
Duration                                 : 1h 43mn
Bit rate mode                            : Constant
Bit rate                                 : 384 Kbps
Channel(s)                               : 6 channels
Channel positions                        : Front: L C R, Side: L R, LFE
Sampling rate                            : 48.0 KHz
Bit depth                                : 16 bits
Compression mode                         : Lossy
Delay relative to video                  : 1mn 5s
Stream size                              : 286 MiB (19%)
Title                                    : AC3 ITA
Language                                 : Italian
Default                                  : Yes
Forced                                   : No
DURATION                                 : 01:43:59.136000000
NUMBER_OF_FRAMES                         : 194973
NUMBER_OF_BYTES                          : 299478528
_STATISTICS_WRITING_APP                  : mkvmerge v8.7.0 ('All of the above') 64bit
_STATISTICS_WRITING_DATE_UTC             : 2017-07-07 17:00:41
_STATISTICS_TAGS                         : BPS DURATION NUMBER_OF_FRAMES NUMBER_OF_BYTES

Audio #2
ID                                       : 3
Format                                   : AC-3
Format/Info                              : Audio Coding 3
Mode extension                           : CM (complete main)
Codec ID                                 : A_AC3
Duration                                 : 1h 43mn
Bit rate mode                            : Constant
Bit rate                                 : 384 Kbps
Channel(s)                               : 6 channels
Channel positions                        : Front: L C R, Side: L R, LFE
Sampling rate                            : 48.0 KHz
Bit depth                                : 16 bits
Compression mode                         : Lossy
Delay relative to video                  : 1mn 5s
Stream size                              : 286 MiB (19%)
Title                                    : DTS ENG
Language                                 : English
Default                                  : No
Forced                                   : No
DURATION                                 : 01:43:58.240000000
NUMBER_OF_FRAMES                         : 584835
NUMBER_OF_BYTES                          : 1176688140
_STATISTICS_WRITING_APP                  : mkvmerge v8.7.0 ('All of the above') 64bit
_STATISTICS_WRITING_DATE_UTC             : 2017-07-07 17:00:41
_STATISTICS_TAGS                         : BPS DURATION NUMBER_OF_FRAMES NUMBER_OF_BYTES

Text #1
ID                                       : 4
Format                                   : ASS
Codec ID                                 : S_TEXT/ASS
Codec ID/Info                            : Advanced Sub Station Alpha
Compression mode                         : Lossless
Title                                    : FORCED
Language                                 : Italian
Default                                  : Yes
Forced                                   : No
DURATION                                 : 01:41:06.691000000
NUMBER_OF_FRAMES                         : 34
NUMBER_OF_BYTES                          : 831
_STATISTICS_WRITING_APP                  : mkvmerge v8.7.0 ('All of the above') 64bit
_STATISTICS_WRITING_DATE_UTC             : 2017-07-07 17:00:41
_STATISTICS_TAGS                         : BPS DURATION NUMBER_OF_FRAMES NUMBER_OF_BYTES

Text #2
ID                                       : 5
Format                                   : ASS
Codec ID                                 : S_TEXT/ASS
Codec ID/Info                            : Advanced Sub Station Alpha
Compression mode                         : Lossless
Title                                    : REGOLARI
Language                                 : Italian
Default                                  : No
Forced                                   : No
DURATION                                 : 01:41:06.691000000
NUMBER_OF_FRAMES                         : 958
NUMBER_OF_BYTES                          : 30058
_STATISTICS_WRITING_APP                  : mkvmerge v8.7.0 ('All of the above') 64bit
_STATISTICS_WRITING_DATE_UTC             : 2017-07-07 17:00:41
_STATISTICS_TAGS                         : BPS DURATION NUMBER_OF_FRAMES NUMBER_OF_BYTES

Text #3
ID                                       : 6
Format                                   : ASS
Codec ID                                 : S_TEXT/ASS
Codec ID/Info                            : Advanced Sub Station Alpha
Compression mode                         : Lossless
Title                                    : NON UDENTI
Language                                 : English
Default                                  : No
Forced                                   : No
DURATION                                 : 01:35:09.078000000
NUMBER_OF_FRAMES                         : 1439
NUMBER_OF_BYTES                          : 42937
_STATISTICS_WRITING_APP                  : mkvmerge v8.7.0 ('All of the above') 64bit
_STATISTICS_WRITING_DATE_UTC             : 2017-07-07 17:00:41
_STATISTICS_TAGS                         : BPS DURATION NUMBER_OF_FRAMES NUMBER_OF_BYTES

Menu
00:00:00.000                             : :00:00:00.000
00:09:32.864                             : :00:09:32.864
00:13:13.084                             : :00:13:13.084
00:15:36.894                             : :00:15:36.894
00:19:35.341                             : :00:19:35.341
00:24:57.454                             : :00:24:57.454
00:34:36.992                             : :00:34:36.992
00:40:45.109                             : :00:40:45.109
00:43:59.303                             : :00:43:59.303
00:52:21.805                             : :00:52:21.805
00:58:33.927                             : :00:58:33.927
01:06:37.785                             : :01:06:37.785
01:11:43.257                             : :01:11:43.257
01:17:50.875                             : :01:17:50.875
01:22:39.621                             : :01:22:39.621
01:28:34.309                             : :01:28:34.309


[/spoiler]

[/center]

Info: Per scaricare devi usare un client come uTorrent o Transmission
AnnounceURL
udp://tracker.coppersurfer.tk:6969/announce
Hash ec39f33c53b4680579346a0a2c61885e12321575
Peers seeds: 191 , leech: 58
Size 1.43 GB
Completato 2109x
Aggiunto 12.07.17 - 09:07:00
Uploader   robbyrs
Votazione (Voti: 1)


Condividi questo bittorrent:


html/blog:


bbcode/forum:




Aggiungi Commento


counter