* Dettagli Torrent   globale  | Commenti (0) 


- Okja (2017).H264.Italian.English.Cor.Ac3.5.1.sub.ita.iCV-MIRCrew -


Download via torrent:
Categoria bittorrent BDRip
Descrizione
Okja (2017).H264.Italian.English.Cor.Ac3.5.1.sub.ita.iCV-MIRCrew


[center]by www.icv-crew.org


NO FOUND ONLY ORIGINAL RELEASE



My release is always in double track audio italian and Original audio
for select it use VLC or dvd player home
not use wmp

Okja (2017)

Presenti anche i sottotitoli esterni ita per i dialoghi in lingua originale







Riconoscimenti

   2017 - Festival di Cannes
       In gara per la Palma d'oro


Titolo originale Okja
Lingua originale inglese, coreano
Paese di produzione Stati Uniti d'America, Corea del Sud
Anno 2017
Durata 120 min
Genere avventura, azione, drammatico, fantascienza
Regia Bong Joon-ho
Sceneggiatura Bong Joon-ho, Jon Ronson
Produttore Bong Joon-ho, Dooho Choi, Dede Gardner, Lewis Taewan Kim, Jeremy Kleiner, Woo-sik Seo
Produttore esecutivo Brad Pitt, Ted Sarandos, Stan Wlodkowski
Casa di produzione Kate Street Picture Company, Lewis Pictures, Plan B Entertainment
Distribuzione (Italia) Netflix
Fotografia Darius Khondji
Montaggio Yang Jin-mo
Musiche Jaeil Jung
Scenografia Kevin Thompson, Lee Ha-joon




   Ahn Seo-hyun: Mija
   Tilda Swinton: Lucy Mirando / Nancy Mirando
   Paul Dano: Jay
   Jake Gyllenhaal: Dr. Johnny Wilcox
   Steven Yeun: K
   Lily Collins: Red
   Devon Bostick: Silver
   Giancarlo Esposito: Frank Dawson
   Shirley Henderson: Jennifer
   Daniel Henshall: Blond
   Byun Hee-Bong: Hee-Bong
   Yoo Je-moon: Mundo Park




Una ragazzina di nome Mija lotta contro una multinazionale per evitare il rapimento del suo migliore amico, un enorme e introverso animale di nome Okja.



Meet Mija, a young girl who risks everything to prevent a powerful, multi-national company from kidnapping her best friend - a fascinating animal named Okja.

















[spoiler]
General
Unique ID                                : 296366698283514152406664731209638924345 (0xDEF6265E2A2B92790AC083DB473CD039)
Complete name                            : Okja (2017).H264.ita.eng.sub.ita.iCV-MIRCrew.mkv
Format                                   : Matroska
Format version                           : Version 2
File size                                : 1.74 GiB
Duration                                 : 2h 1mn
Overall bit rate                         : 2 057 Kbps
Movie name                               : [iCV-Crew]
Encoded date                             : UTC 2017-07-06T16:51:41Z
Writing application                      : HandBrake 0.10.5 2016021100
Writing library                          : Lavf55.12.0

Video
ID                                       : 1
Format                                   : AVC
Format/Info                              : Advanced Video Codec
Format profile                           : [email protected]
Format settings, CABAC                   : Yes
Format settings, ReFrames                : 4 frames
Codec ID                                 : V_MPEG4/ISO/AVC
Duration                                 : 2h 1mn
Bit rate                                 : 1 290 Kbps
Width                                    : 720 pixels
Height                                   : 304 pixels
Display aspect ratio                     : 2.35:1
Frame rate mode                          : Variable
Frame rate                               : 24.000 fps
Color space                              : YUV
Chroma subsampling                       : 4:2:0
Bit depth                                : 8 bits
Scan type                                : Progressive
Bits/(Pixel*Frame)                       : 0.246
Stream size                              : 1.06 GiB (61%)
Writing library                          : x264 core 142 r2479 dd79a61
Encoding settings                        : cabac=1 / ref=1 / deblock=1:-1:-1 / analyse=0x1:0x111 / me=hex / subme=2 / psy=1 / psy_rd=1.00:0.15 / mixed_ref=0 / me_range=16 / chroma_me=1 / trellis=0 / 8x8dct=0 / cqm=0 / deadzone=21,11 / fast_pskip=1 / chroma_qp_offset=0 / threads=12 / lookahead_threads=2 / sliced_threads=0 / nr=0 / decimate=1 / interlaced=0 / bluray_compat=0 / constrained_intra=0 / bframes=3 / b_pyramid=2 / b_adapt=1 / b_bias=0 / direct=1 / weightb=1 / open_gop=0 / weightp=1 / keyint=240 / keyint_min=24 / scenecut=40 / intra_refresh=0 / rc_lookahead=10 / rc=abr / mbtree=1 / bitrate=1290 / ratetol=1.0 / qcomp=0.60 / qpmin=0 / qpmax=69 / qpstep=4 / vbv_maxrate=20000 / vbv_bufsize=25000 / nal_hrd=none / filler=0 / ip_ratio=1.40 / aq=1:1.00
Default                                  : Yes
Forced                                   : No
Color primaries                          : BT.709-5, BT.1361, IEC 61966-2-4, SMPTE RP177
Transfer characteristics                 : BT.709-5, BT.1361
Matrix coefficients                      : BT.709-5, BT.1361, IEC 61966-2-4 709, SMPTE RP177

Audio #1
ID                                       : 2
Format                                   : AC-3
Format/Info                              : Audio Coding 3
Mode extension                           : CM (complete main)
Codec ID                                 : A_AC3
Duration                                 : 2h 1mn
Bit rate mode                            : Constant
Bit rate                                 : 384 Kbps
Channel(s)                               : 6 channels
Channel positions                        : Front: L C R, Side: L R, LFE
Sampling rate                            : 48.0 KHz
Bit depth                                : 16 bits
Compression mode                         : Lossy
Delay relative to video                  : 1mn 5s
Stream size                              : 333 MiB (19%)
Title                                    : Surround
Default                                  : Yes
Forced                                   : No

Audio #2
ID                                       : 3
Format                                   : AC-3
Format/Info                              : Audio Coding 3
Mode extension                           : CM (complete main)
Codec ID                                 : A_AC3
Duration                                 : 2h 1mn
Bit rate mode                            : Constant
Bit rate                                 : 384 Kbps
Channel(s)                               : 2 channels
Channel positions                        : Front: L R
Sampling rate                            : 48.0 KHz
Bit depth                                : 16 bits
Compression mode                         : Lossy
Delay relative to video                  : 1mn 5s
Stream size                              : 333 MiB (19%)
Title                                    : Stereo
Language                                 : English
Default                                  : No
Forced                                   : No

Text
ID                                       : 4
Format                                   : ASS
Codec ID                                 : S_TEXT/ASS
Codec ID/Info                            : Advanced Sub Station Alpha
Compression mode                         : Lossless
Default                                  : No
Forced                                   : No


[/spoiler]

[/center]

Info: Per scaricare devi usare un client come uTorrent o Transmission
AnnounceURL
udp://tracker.coppersurfer.tk:6969/announce
Hash ddf2a18811506e2cdb9ead51e0d1c5a773382c30
Peers seeds: 132 , leech: 41
Size 1.74 GB
Completato 1997x
Aggiunto 10.07.17 - 11:07:29
Uploader   robbyrs
Votazione (Voti: 1)


Condividi questo bittorrent:


html/blog:


bbcode/forum:




Aggiungi Commento


counter