* Dettagli Torrent   globale  | Commenti (0) 


- L uomo invisibile (1933).XviD.Italian.English.Ac3.MultiSub.iCV-MIRCrew -


Download via torrent:
Categoria bittorrent BDRip
Descrizione
The Invisible Man - L uomo invisibile (1933).XviD.Italian.English.Ac3.MultiSub.iCV-MIRCrew

[center]by www.icv-crew.org


NO FOUND ONLY ORIGINAL RELEASE



My release is always in double track audio italian and Original audio
for select it use VLC or dvd player home
not use wmp

L'uomo invisibile - The Invisible Man (1933)







Titolo originale The Invisible Man
Paese di produzione Stati Uniti
Anno 1933
Durata 71 min
Dati tecnici B/N
Genere orrore, thriller, fantascienza
Regia James Whale
Soggetto H. G. Wells
Sceneggiatura R. C. Sherriff
Produttore Carl Laemmle Jr.
Casa di produzione Universal Studios
Distribuzione (Italia) Universal (1935)
Fotografia Arthur Edeson, John J. Mescall
Montaggio Ted J. Kent
Effetti speciali John P. Fulton
Musiche Paul Dupont, W. Franke Harling, Heinz Roemheld
Trucco Jack P. Pierce




   Claude Rains: L'uomo invisibile
   Gloria Stuart: Flora Cranley
   William Harrigan: Dr. Arthur Kemp
   Henry Travers: Dr. Cranley
   Una O'Connor: Jenny Hall
   Forrester Harvey: Herbert Hall




Un misterioso individuo dal volto nascosto da bende e da un paio di occhiali da sole alloggia nella locanda del villaggio di Imping, nel Sussex e chiede di essere lasciato solo senza disturbi. Nei giorni seguenti l'uomo si rinchiude nella stanza a condurre strani esperimenti ed è molto scontroso con i locandieri quando gli portano i pasti o gli domandano di pagare l'affitto e.................................



A scientist finds a way of becoming invisible, but in doing so, he becomes murderously insane.  


















[spoiler]
General
Complete name                            : L'Uomo Invisibile - The Invisible Man (1933).Ita.Eng.Multisub.MIRCrew.avi
Format                                   : AVI
Format/Info                              : Audio Video Interleave
File size                                : 1.01 GiB
Duration                                 : 1h 11mn
Overall bit rate                         : 2 026 Kbps
Writing application                      : VirtualDubMod 1.5.10.2 (build 2540/release)
Writing library                          : VirtualDubMod build 2540/release

Video
ID                                       : 0
Format                                   : MPEG-4 Visual
Format profile                           : [email protected]
Format settings, BVOP                    : Yes
Format settings, QPel                    : No
Format settings, GMC                     : No warppoints
Format settings, Matrix                  : Default (H.263)
Codec ID                                 : XVID
Codec ID/Hint                            : XviD
Duration                                 : 1h 11mn
Bit rate                                 : 1 500 Kbps
Width                                    : 720 pixels
Height                                   : 528 pixels
Display aspect ratio                     : 4:3
Frame rate                               : 23.976 fps
Color space                              : YUV
Chroma subsampling                       : 4:2:0
Bit depth                                : 8 bits
Scan type                                : Progressive
Compression mode                         : Lossy
Bits/(Pixel*Frame)                       : 0.165
Stream size                              : 768 MiB (74%)

Audio #1
ID                                       : 1
Format                                   : AC-3
Format/Info                              : Audio Coding 3
Mode extension                           : CM (complete main)
Codec ID                                 : 2000
Duration                                 : 1h 11mn
Bit rate mode                            : Constant
Bit rate                                 : 256 Kbps
Channel(s)                               : 2 channels
Channel positions                        : Front: L R
Sampling rate                            : 48.0 KHz
Bit depth                                : 16 bits
Compression mode                         : Lossy
Stream size                              : 131 MiB (13%)
Alignment                                : Split accross interleaves
Interleave, duration                     : 42 ms (1.00 video frame)
Interleave, preload duration             : 500 ms

Audio #2
ID                                       : 2
Format                                   : AC-3
Format/Info                              : Audio Coding 3
Mode extension                           : CM (complete main)
Codec ID                                 : 2000
Duration                                 : 1h 11mn
Bit rate mode                            : Constant
Bit rate                                 : 256 Kbps
Channel(s)                               : 2 channels
Channel positions                        : Front: L R
Sampling rate                            : 48.0 KHz
Bit depth                                : 16 bits
Compression mode                         : Lossy
Stream size                              : 131 MiB (13%)
Alignment                                : Split accross interleaves
Interleave, duration                     : 42 ms (1.00 video frame)
Interleave, preload duration             : 500 ms


[/spoiler]

[/center]

Info: Per scaricare devi usare un client come uTorrent o Transmission
AnnounceURL
udp://tracker.coppersurfer.tk:6969/announce
Hash e26c8c1e14a1b79a197b5200560501af2c6fa1fb
Peers seeds: 20 , leech: 1
Size 1.04 GB
Completato 310x
Aggiunto 09.07.17 - 07:07:58
Uploader   robbyrs
Votazione (Voti: 1)


Condividi questo bittorrent:


html/blog:


bbcode/forum:




Aggiungi Commento


counter