* Dettagli Torrent   globale  | Commenti (0) 


- Affare fatto (2015).H264.Italian.English.Ac3.5.1.sub.ita.iCV-MIRCrew -


Download via torrent:
Categoria bittorrent BDRip
Descrizione
Unfinished Business - Affare fatto (2015).H264.Italian.English.Ac3.5.1.sub.ita.iCV-MIRCrew


[center]by www.icv-crew.org


NO FOUND ONLY ORIGINAL RELEASE



My release is always in double track audio italian and Original audio
for select it use VLC or dvd player home
not use wmp

Affare fatto - Unfinished Business (2015)







Titolo originale: Unfinished Business
Nazionalità: USA
Anno: 2015
Genere: Commedia
Regia:  Ken Scott
Sceneggiatura: Steve Conrad
Fotografia: Oliver Stapleton
Produzione: Allied Select Productions, New Regency Pictures, Studio Babelsberg
Distribuzione: 20th Century Fox
DURATA: 1h 27 Min 14 Sec



Vince Vaughn, Sienna Miller, Tom Wilkinson, Dave Franco, James Marsden, Nick Frost, June Raphael, Melissa McMeekin, Clement Von Franckenstein



Daniel "Dan" Trunkman è sposato con Susan e ha due figli: il più grande si chiama Paul e a scuola soffre di bullismo, e la figlia si chiama Bess. Egli è anche un solerte imprenditore ma un giorno viene licenziato da Chuck Portnoy, CEO della Dynamic Systems in cui lavorava. ...........



A hard-working small business owner and his two associates travel to Europe to close the most important deal of their lives. But what began as a routine business trip goes off the rails in every way imaginable - and unimaginable.















[spoiler]
General
Unique ID                                : 231692744167026853045433527123527709223 (0xAE4E663E590D33BDBB42DBA22011B227)
Complete name                            : Affare fatto - Unfinished Business (2015).H264.ita.eng.sub.ita.eng.iCV-MIRCrew.mkv
Format                                   : Matroska
Format version                           : Version 2
File size                                : 1.30 GiB
Duration                                 : 1h 27mn
Overall bit rate                         : 2 129 Kbps
Movie name                               : Affare fatto (2015).H264.ita.eng.sub.ita.eng.iCV-MIRCrew
Encoded date                             : UTC 2017-05-22 13:15:00
Writing application                      : mkvmerge v5.4.0 ('Piper') built on Mar 10 2012 13:34:39
Writing library                          : libebml v1.2.3 + libmatroska v1.3.0

Video
ID                                       : 1
Format                                   : AVC
Format/Info                              : Advanced Video Codec
Format profile                           : [email protected]
Format settings, CABAC                   : Yes
Format settings, ReFrames                : 2 frames
Muxing mode                              : Header stripping
Codec ID                                 : V_MPEG4/ISO/AVC
Duration                                 : 1h 27mn
Bit rate                                 : 1 254 Kbps
Width                                    : 720 pixels
Height                                   : 300 pixels
Display aspect ratio                     : 2.40:1
Frame rate                               : 25.000 fps
Color space                              : YUV
Chroma subsampling                       : 4:2:0
Bit depth                                : 8 bits
Scan type                                : Progressive
Bits/(Pixel*Frame)                       : 0.232
Stream size                              : 783 MiB (59%)
Title                                    : Affare fatto (2015).H264.ita.eng.sub.ita.eng.iCV-MIRCrew
Writing library                          : x264 core
Default                                  : Yes
Forced                                   : No
Color primaries                          : BT.601-6 525, BT.1358 525, BT.1700 NTSC, SMPTE 170M
Transfer characteristics                 : BT.709-5, BT.1361
Matrix coefficients                      : BT.601-6 525, BT.1358 525, BT.1700 NTSC, SMPTE 170M

Audio #1
ID                                       : 2
Format                                   : AC-3
Format/Info                              : Audio Coding 3
Mode extension                           : CM (complete main)
Muxing mode                              : Header stripping
Codec ID                                 : A_AC3
Duration                                 : 1h 27mn
Bit rate mode                            : Constant
Bit rate                                 : 384 Kbps
Channel(s)                               : 6 channels
Channel positions                        : Front: L C R, Side: L R, LFE
Sampling rate                            : 48.0 KHz
Bit depth                                : 16 bits
Compression mode                         : Lossy
Stream size                              : 240 MiB (18%)
Language                                 : Italian
Default                                  : Yes
Forced                                   : No

Audio #2
ID                                       : 3
Format                                   : AC-3
Format/Info                              : Audio Coding 3
Mode extension                           : CM (complete main)
Muxing mode                              : Header stripping
Codec ID                                 : A_AC3
Duration                                 : 1h 27mn
Bit rate mode                            : Constant
Bit rate                                 : 448 Kbps
Channel(s)                               : 6 channels
Channel positions                        : Front: L C R, Side: L R, LFE
Sampling rate                            : 48.0 KHz
Bit depth                                : 16 bits
Compression mode                         : Lossy
Stream size                              : 280 MiB (21%)
Language                                 : English
Default                                  : No
Forced                                   : No

Text #1
ID                                       : 4
Format                                   : VobSub
Muxing mode                              : zlib
Codec ID                                 : S_VOBSUB
Codec ID/Info                            : The same subtitle format used on DVDs
Language                                 : English
Default                                  : Yes
Forced                                   : No

Text #2
ID                                       : 5
Format                                   : VobSub
Muxing mode                              : zlib
Codec ID                                 : S_VOBSUB
Codec ID/Info                            : The same subtitle format used on DVDs
Language                                 : Italian
Default                                  : No
Forced                                   : No

Text #3
ID                                       : 6
Format                                   : VobSub
Muxing mode                              : zlib
Codec ID                                 : S_VOBSUB
Codec ID/Info                            : The same subtitle format used on DVDs
Language                                 : Italian
Default                                  : No
Forced                                   : No

Menu
00:00:00.000                             : en01)00:00:00:000
00:03:05.080                             : en02)00:03:05:080
00:06:38.640                             : en03)00:06:38:640
00:10:05.480                             : en04)00:10:05:480
00:13:36.880                             : en05)00:13:36:880
00:19:06.080                             : en06)00:19:06:080
00:21:59.240                             : en07)00:21:59:240
00:26:20.280                             : en000:26:20:280
00:30:12.280                             : en09)00:30:12:280
00:32:40.520                             : en10)00:32:40:520
00:35:40.800                             : en11)00:35:40:800
00:39:22.760                             : en12)00:39:22:760
00:42:39.040                             : en13)00:42:39:040
00:45:24.000                             : en14)00:45:24:000
00:48:43.880                             : en15)00:48:43:880
00:52:52.640                             : en16)00:52:52:640
00:56:16.720                             : en17)00:56:16:720
00:59:59.280                             : en100:59:59:280
01:03:07.280                             : en19)01:03:07:280
01:05:14.920                             : en20)01:05:14:920
01:08:50.640                             : en21)01:08:50:640
01:12:19.560                             : en22)01:12:19:560
01:17:28.760                             : en23)01:17:28:760
01:20:57.640                             : en24)01:20:57:640
01:27:14.080                             : en25)01:27:14:080



[/spoiler]

[/center]

Info: Per scaricare devi usare un client come uTorrent o Transmission
AnnounceURL
udp://tracker.coppersurfer.tk:6969/announce
Hash 9c6abf639f371175910d1375ff5c15e8c227547a
Peers seeds: 43 , leech: 7
Size 1.30 GB
Completato 852x
Aggiunto 09.07.17 - 06:07:11
Uploader   robbyrs
Votazione (Voti: 1)


Condividi questo bittorrent:


html/blog:


bbcode/forum:




Aggiungi Commento


counter