* Dettagli Torrent   globale  | Commenti (2) 


- Non avere paura del buio (2011).H264.Italian.English.Ac3.5.1.sub.ita,NUita.iCV-MIRCrew -


Download via torrent:
Categoria bittorrent BDRip
Descrizione
Don't Be Afraid of the Dark - Non avere paura del buio (2011).H264.Italian.English.Ac3.5.1.sub.ita,NUita.iCV-MIRCrew


[center]by www.icv-crew.org


NO FOUND ONLY ORIGINAL RELEASE



My release is always in double track audio italian and Original audio
for select it use VLC or dvd player home
not use wmp

Non avere paura del buio - Don't Be Afraid of the Dark (2011)

PRESENTI ANCHE i SOTTOTITOLI

ESTERNI IN SRT (ita)







Titolo originale    Don't Be Afraid of the Dark
Lingua originale    inglese
Paese di produzione    USA, Australia
Anno    2011
Durata    103 minuti
Rapporto    1,85 : 1
Genere    orrore, thriller
Regia    Troy Nixey
Soggetto    Nigel McKeand (film 1973)
Sceneggiatura    Guillermo del Toro, Matthew Robbins
Produttore    Mark Johnson, Guillermo del Toro
Produttore esecutivo    William Horberg, Tom Williams, Stephen Jones
Casa di produzione    Gran Via, Miramax Films, Tequila Gang
Distribuzione (Italia)    Lucky Red
Fotografia    Oliver Stapleton
Montaggio    Jill Bilcock
Effetti speciali    Glenn Melenhorst
Musiche    Marco Beltrami, Buck Sanders
Scenografia    Roger Ford



   Katie Holmes: Kim
   Guy Pearce: Alex Hirst
   Bailee Madison: Sally Hirst
   Alan Dale: Jacoby
   Julia Blake: Mrs. Underhill
   Jack Thompson: Harris
   Nicholas Bell: Psichiatra
   James Mackay: Bibliotecario



Sally Hirst, una bambina taciturna e solitaria, si trasferisce in una villa del XIX secolo a Rhode Island assieme al padre Alex e alla nuova fidanzata di lui Kim. Sally una volta arrivata sente che qualcosa di strano incombe nella nuova dimora e cerca di farlo sapere al suo padre, ma quest'ultimo, architetto di professione, è talmente preso con i lavori di ristrutturazione che inizialmente non da  peso alle parole di sua figlia.......................



A young girl sent to live with her father and his new girlfriend believes that she has released creatures from a sealed ash pit in the basement of her new home............



















[spoiler]
General
Unique ID                                : 263984568525777402244412612476543794345 (0xC699941B10E342F189341A9311D97CA9)
Complete name                            : Non avere paura del buio - Don't Be Afraid of the Dark (2011).H264.ita.eng.sub.ita.NUita.iCV-MIRCrew.mkv
Format                                   : Matroska
Format version                           : Version 2
File size                                : 1.51 GiB
Duration                                 : 1h 38mn
Overall bit rate                         : 2 187 Kbps
Movie name                               : www.icv-crew.org
Encoded date                             : UTC 2017-06-27 08:00:51
Writing application                      : Lavf54.63.100
Writing library                          : Lavf54.63.100
COPYRIGHT                                : robbyrs

Video
ID                                       : 1
Format                                   : AVC
Format/Info                              : Advanced Video Codec
Format profile                           : [email protected]
Format settings, CABAC                   : Yes
Format settings, ReFrames                : 2 frames
Codec ID                                 : V_MPEG4/ISO/AVC
Duration                                 : 1h 38mn
Bit rate                                 : 1 290 Kbps
Width                                    : 720 pixels
Height                                   : 384 pixels
Display aspect ratio                     : 16:9
Frame rate mode                          : Variable
Frame rate                               : 24.000 fps
Color space                              : YUV
Chroma subsampling                       : 4:2:0
Bit depth                                : 8 bits
Scan type                                : Progressive
Bits/(Pixel*Frame)                       : 0.194
Stream size                              : 883 MiB (57%)
Writing library                          : x264 core 130 r2273
Encoding settings                        : cabac=1 / ref=2 / deblock=1:0:0 / analyse=0x1:0x131 / me=hex / subme=7 / psy=1 / psy_rd=1.00:0.00 / mixed_ref=0 / me_range=16 / chroma_me=1 / trellis=1 / 8x8dct=0 / cqm=0 / deadzone=21,11 / fast_pskip=1 / chroma_qp_offset=-2 / threads=12 / lookahead_threads=2 / sliced_threads=0 / nr=0 / decimate=1 / interlaced=0 / bluray_compat=0 / constrained_intra=0 / bframes=3 / b_pyramid=0 / b_adapt=1 / b_bias=0 / direct=3 / weightb=1 / open_gop=0 / weightp=2 / keyint=240 / keyint_min=24 / scenecut=40 / intra_refresh=0 / rc_lookahead=40 / rc=abr / mbtree=1 / bitrate=1290 / ratetol=1.0 / qcomp=0.60 / qpmin=10 / qpmax=69 / qpstep=4 / vbv_maxrate=24000 / vbv_bufsize=24000 / nal_hrd=none / ip_ratio=1.40 / aq=1:1.00
Language                                 : Italian
Default                                  : Yes
Forced                                   : No

Audio #1
ID                                       : 2
Format                                   : AC-3
Format/Info                              : Audio Coding 3
Mode extension                           : CM (complete main)
Codec ID                                 : A_AC3
Duration                                 : 1h 38mn
Bit rate mode                            : Constant
Bit rate                                 : 448 Kbps
Channel(s)                               : 6 channels
Channel positions                        : Front: L C R, Side: L R, LFE
Sampling rate                            : 48.0 KHz
Bit depth                                : 16 bits
Compression mode                         : Lossy
Delay relative to video                  : 1mn 5s
Stream size                              : 317 MiB (20%)
Language                                 : Italian
Default                                  : Yes
Forced                                   : No

Audio #2
ID                                       : 3
Format                                   : AC-3
Format/Info                              : Audio Coding 3
Mode extension                           : CM (complete main)
Codec ID                                 : A_AC3
Duration                                 : 1h 38mn
Bit rate mode                            : Constant
Bit rate                                 : 448 Kbps
Channel(s)                               : 6 channels
Channel positions                        : Front: L C R, Side: L R, LFE
Sampling rate                            : 48.0 KHz
Bit depth                                : 16 bits
Compression mode                         : Lossy
Delay relative to video                  : 1mn 5s
Stream size                              : 317 MiB (20%)
Language                                 : English
Default                                  : No
Forced                                   : No

Text #1
ID                                       : 4
Format                                   : ASS
Codec ID                                 : S_TEXT/ASS
Codec ID/Info                            : Advanced Sub Station Alpha
Compression mode                         : Lossless
Language                                 : Italian
Default                                  : Yes
Forced                                   : Yes

Text #2
ID                                       : 5
Format                                   : ASS
Codec ID                                 : S_TEXT/ASS
Codec ID/Info                            : Advanced Sub Station Alpha
Compression mode                         : Lossless
Language                                 : Italian
Default                                  : No
Forced                                   : No

Text #3
ID                                       : 6
Format                                   : ASS
Codec ID                                 : S_TEXT/ASS
Codec ID/Info                            : Advanced Sub Station Alpha
Compression mode                         : Lossless
Language                                 : Italian
Default                                  : No
Forced                                   : No

Menu
00:00:00.000                             : :00:00:00.000
00:09:10.500                             : :00:09:10.500
00:18:01.000                             : :00:18:01.000
00:26:07.083                             : :00:26:07.083
00:33:21.083                             : :00:33:21.083
00:46:04.417                             : :00:46:04.417
00:52:30.000                             : :00:52:30.000
00:59:09.083                             : :00:59:09.083
01:10:07.000                             : :01:10:07.000
01:19:22.292                             : :01:19:22.292
01:26:36.833                             : :01:26:36.833
01:35:29.000                             : :01:35:29.000



[/spoiler]

[/center]

Info: Per scaricare devi usare un client come uTorrent o Transmission
AnnounceURL
udp://tracker.coppersurfer.tk:6969/announce
Hash 4bd81c05b526225d136e84980d9d5b56ee88e6dc
Peers seeds: 29 , leech: 6
Size 1.51 GB
Completato 524x
Aggiunto 09.07.17 - 05:07:35
Uploader   robbyrs
Votazione (Voti: 2)


Condividi questo bittorrent:


html/blog:


bbcode/forum:




Aggiungi Commento
Ultimi commenti
  
S C U S A T E ! ! !
Ho sbagliato file, il commento era per un e-book in pdf :  - Claudia Cernigoi - Operazione foibe a Trieste [Pdf Ita] [Tntvillage] -
09/07 08.22
  
Attenzione il file contiene 4 minacce (sono software per copiare le pw ed altre amenità) meglio scansire con un antivirus (io ho usato Defender e le ha trovate e tolte). Comunque per precauzione, per non finire INFOIBATO, cancello tutto il file.
Buoni Torrent a tutti !!

Saluti
angelo
09/07 08.19
Tutti commenti (2)


counter