* Dettagli Torrent   globale  | Commenti (0) 


- Explorer (2016).H264.Italian.English.Ac3.5.1.sub.ita.iCV-MIRCrew -


Download via torrent:
Categoria bittorrent BDRip
Descrizione
Arrowhead - Explorer (2016).H264.Italian.English.Ac3.5.1.sub.ita.iCV-MIRCrew

[center]by www.icv-crew.org


NO FOUND ONLY ORIGINAL RELEASE



My release is always in double track audio italian and Original audio
for select it use VLC or dvd player home
not use wmp

Explorer - Arrowhead (2016)

PRESENTI ANCHE i SOTTOTITOLI

ESTERNI IN SRT (ita)







   Titolo originale: Arrowhead
   Regia di Jesse O'Brien
   Australia, 2016
   Genere: Fantascienza
   durata 95'



Christopher Kirby, Shaun Micallef, Dan Mor, Aleisha Rose, Jak Wyld, Mark Redpath, Akira Bradley, Morris Pontinelli, Jamie Foster.



Dopo una guerra interstellare durata anni che ha devastato pianeti e decimato la popolazione della galassia, l’esercito sembra aver preso il potere ed è pronto a sferrare il colpo finale. La resistenza ribelle decide di far evadere il mercenario Kye Cortland per poter entrare in possesso dei piani nemici. ...........



Arrowhead is an interstellar survival story of a stranded mercenary who discovers a deadly secret on a seemingly deserted moon.













[spoiler]
General
Unique ID                                : 266513067675745843350652828187369987761 (0xC8808CBD1E61F765E9A1CE140424DEB1)
Complete name                            : Explorer - Arrowhead (2016) (2016).H264.ita.eng.sub.ita.iCV-MIRCrew.mkv
Format                                   : Matroska
Format version                           : Version 2
File size                                : 1.45 GiB
Duration                                 : 1h 34mn
Overall bit rate                         : 2 187 Kbps
Movie name                               : www.icv-crew.org
Encoded date                             : UTC 2017-07-02 13:05:52
Writing application                      : Lavf54.63.100
Writing library                          : Lavf54.63.100
COPYRIGHT                                : robbyrs

Video
ID                                       : 1
Format                                   : AVC
Format/Info                              : Advanced Video Codec
Format profile                           : [email protected]
Format settings, CABAC                   : Yes
Format settings, ReFrames                : 2 frames
Codec ID                                 : V_MPEG4/ISO/AVC
Duration                                 : 1h 34mn
Bit rate                                 : 1 290 Kbps
Width                                    : 720 pixels
Height                                   : 404 pixels
Display aspect ratio                     : 16:9
Frame rate mode                          : Variable
Frame rate                               : 25.000 fps
Color space                              : YUV
Chroma subsampling                       : 4:2:0
Bit depth                                : 8 bits
Scan type                                : Progressive
Bits/(Pixel*Frame)                       : 0.177
Stream size                              : 848 MiB (57%)
Writing library                          : x264 core 130 r2273
Encoding settings                        : cabac=1 / ref=2 / deblock=1:0:0 / analyse=0x1:0x131 / me=hex / subme=7 / psy=1 / psy_rd=1.00:0.00 / mixed_ref=0 / me_range=16 / chroma_me=1 / trellis=1 / 8x8dct=0 / cqm=0 / deadzone=21,11 / fast_pskip=1 / chroma_qp_offset=-2 / threads=12 / lookahead_threads=2 / sliced_threads=0 / nr=0 / decimate=1 / interlaced=0 / bluray_compat=0 / constrained_intra=0 / bframes=3 / b_pyramid=0 / b_adapt=1 / b_bias=0 / direct=3 / weightb=1 / open_gop=0 / weightp=2 / keyint=250 / keyint_min=25 / scenecut=40 / intra_refresh=0 / rc_lookahead=40 / rc=abr / mbtree=1 / bitrate=1290 / ratetol=1.0 / qcomp=0.60 / qpmin=10 / qpmax=69 / qpstep=4 / vbv_maxrate=24000 / vbv_bufsize=24000 / nal_hrd=none / ip_ratio=1.40 / aq=1:1.00
Language                                 : Italian
Default                                  : Yes
Forced                                   : No
DURATION                                 : 01:34:59.040000000
NUMBER_OF_FRAMES                         : 142476
NUMBER_OF_BYTES                          : 7414695113
_STATISTICS_WRITING_APP                  : mkvmerge v8.3.0 ('Over the Horizon') 64bit
_STATISTICS_WRITING_DATE_UTC             : 2017-06-30 16:43:54
_STATISTICS_TAGS                         : BPS DURATION NUMBER_OF_FRAMES NUMBER_OF_BYTES

Audio #1
ID                                       : 2
Format                                   : AC-3
Format/Info                              : Audio Coding 3
Mode extension                           : CM (complete main)
Codec ID                                 : A_AC3
Duration                                 : 1h 34mn
Bit rate mode                            : Constant
Bit rate                                 : 448 Kbps
Channel(s)                               : 6 channels
Channel positions                        : Front: L C R, Side: L R, LFE
Sampling rate                            : 48.0 KHz
Bit depth                                : 16 bits
Compression mode                         : Lossy
Delay relative to video                  : 1mn 5s
Stream size                              : 304 MiB (20%)
Title                                    : AC3
Language                                 : Italian
Default                                  : No
Forced                                   : No
DURATION                                 : 01:34:58.976000000
NUMBER_OF_FRAMES                         : 178093
NUMBER_OF_BYTES                          : 455918080
_STATISTICS_WRITING_APP                  : mkvmerge v8.3.0 ('Over the Horizon') 64bit
_STATISTICS_WRITING_DATE_UTC             : 2017-06-30 16:43:54
_STATISTICS_TAGS                         : BPS DURATION NUMBER_OF_FRAMES NUMBER_OF_BYTES

Audio #2
ID                                       : 3
Format                                   : AC-3
Format/Info                              : Audio Coding 3
Mode extension                           : CM (complete main)
Codec ID                                 : A_AC3
Duration                                 : 1h 34mn
Bit rate mode                            : Constant
Bit rate                                 : 448 Kbps
Channel(s)                               : 6 channels
Channel positions                        : Front: L C R, Side: L R, LFE
Sampling rate                            : 48.0 KHz
Bit depth                                : 16 bits
Compression mode                         : Lossy
Delay relative to video                  : 1mn 5s
Stream size                              : 304 MiB (20%)
Title                                    : AC3
Language                                 : English
Default                                  : No
Forced                                   : No
DURATION                                 : 01:34:58.976000000
NUMBER_OF_FRAMES                         : 178093
NUMBER_OF_BYTES                          : 455918080
_STATISTICS_WRITING_APP                  : mkvmerge v8.3.0 ('Over the Horizon') 64bit
_STATISTICS_WRITING_DATE_UTC             : 2017-06-30 16:43:54
_STATISTICS_TAGS                         : BPS DURATION NUMBER_OF_FRAMES NUMBER_OF_BYTES

Text
ID                                       : 4
Format                                   : ASS
Codec ID                                 : S_TEXT/ASS
Codec ID/Info                            : Advanced Sub Station Alpha
Compression mode                         : Lossless
Title                                    : REGULAR
Language                                 : Italian
Default                                  : Yes
Forced                                   : No
DURATION                                 : 01:33:26.159000000
NUMBER_OF_FRAMES                         : 830
NUMBER_OF_BYTES                          : 21694
_STATISTICS_WRITING_APP                  : mkvmerge v8.3.0 ('Over the Horizon') 64bit
_STATISTICS_WRITING_DATE_UTC             : 2017-06-30 16:43:54
_STATISTICS_TAGS                         : BPS DURATION NUMBER_OF_FRAMES NUMBER_OF_BYTES

Menu
00:00:00.000                             : :00:00:00.000
00:10:42.800                             : :00:10:42.800
00:17:14.360                             : :00:17:14.360
00:24:37.200                             : :00:24:37.200
00:32:44.480                             : :00:32:44.480
00:42:00.960                             : :00:42:00.960
00:51:00.640                             : :00:51:00.640
00:56:16.680                             : :00:56:16.680
01:03:16.280                             : :01:03:16.280
01:15:08.040                             : :01:15:08.040
01:22:25.200                             : :01:22:25.200
01:32:46.080                             : :01:32:46.080



[/spoiler]

[/center]

Info: Per scaricare devi usare un client come uTorrent o Transmission
AnnounceURL
udp://tracker.coppersurfer.tk:6969/announce
Hash 90d43ab3dcbf2971be0bdf5ec4cd9a1c05ce6ba2
Peers seeds: 130 , leech: 11
Size 1.45 GB
Completato 2821x
Aggiunto 06.07.17 - 06:07:51
Uploader   robbyrs
Votazione (Voti: 1)


Condividi questo bittorrent:


html/blog:


bbcode/forum:




Aggiungi Commento


counter