* Dettagli Torrent   globale  | Commenti (15) 


- John.Wick.Capitolo.2.2017.iTA.ENG.Bluray.1080p.x264-DDNCREW.MKV -


Download via torrent:
Categoria bittorrent BDRip
Descrizione
[center]

[size=22pt]GIUSEPPEiCV & LITTLELINX
HANNO IL PIACERE DI PRESENTARE[/size]

[size=18pt]JOHN WICK
CAPITOLO 2

BDRIP 1080p
ITA ENG DTS,AC3
Trovi tutte le nostre release su
IL CORSARO VERDE
www.icv-crew.org
[/size]




.: Dati :.

DATA USCITA: 16 marzo 2017
GENERE: Azione, Thriller
ANNO: 2017
REGIA: Chad Stahelski
ATTORI: Keanu Reeves, Riccardo Scamarcio, Claudia Gerini, Ian McShane, Common, Ruby Rose, John Leguizamo, Laurence Fishburne, Peter Stormare
SCENEGGIATURA: Derek Kolstad
FOTOGRAFIA: Dan Laustsen
MONTAGGIO: Evan Schiff
MUSICHE: Tyler Bates
PRODUZIONE: 87Eleven, Lionsgate, Thunder Road Pictures
DISTRIBUZIONE: Eagle Pictures
PAESE: USA
DURATA: 122 Min

After returning to the criminal underworld to repay a debt, John Wick discovers that a large bounty has been put on his life.

Keanu Reeves torna nei panni del leggendario sicario John Wick, costretto a rimettersi in gioco grazie a un ex socio che trama di prendere il controllo di una oscura organizzazione internazionale. Vincolato da un giuramento di sangue, John decide di aiutarlo e si dirige a Roma dove affronterà alcuni dei più spietati killer al mondo. Chi sono i personaggi principali che ruotano intorno a John Wick?
Winston, l'arrogante capo de Il Continental, interpretato da Ian McShane nel primo John Wick, torna in John Wick 2
Lance Reddick riprende il suo ruolo Charon, il concierge dell'hotel Il Continental John Leguizamo è di nuovo Aurelio, il meccanico amico di Wick
Nel nuovo film, John Wick viene trascinato di nuovo in una vita di violenza su ordine di Santino D'Antonio, un subdolo psicopatico interpretato da Riccardo Scamarcio
Claudia Gerini interpreta Gianna, la sorella di Santino, al comando del cartello criminale dal suo lussuoso quartier generale di Roma Common interpreta Cassian, capo della sicurezza di Gianna
Ruby Rose, star della serie Orange is the New Black, è Ares, boss della sicurezza di Santino
Laurence Fishburne è King, che governa un network di killer di New York


.: Screenshot :.

 
.: Caratteristiche Tecniche :.[/center]


Code

[ Info sul file ]
John.Wick.Capitolo.2.2017.iTA.ENG.Bluray.1080p.x264-DDNCREW.MKV
Format                                   : Matroska
Format version                           : Version 4 / Version 2
File size                                : 12.6 GiB
Duration                                 : 2h 2mn
Overall bit rate                         : 14.6 Mbps
Encoded date                             : UTC 2017-07-01 17:25:48
Writing application                      : mkvmerge v8.3.0 ('Over the Horizon') 64bit
Writing library                          : libebml v1.3.1 + libmatroska v1.4.2
DURATION                                 : 01:49:45.292000000
NUMBER_OF_FRAMES                         : 671
NUMBER_OF_BYTES                          : 17748
_STATISTICS_WRITING_APP                  : mkvmerge v8.3.0 ('Over the Horizon') 64bit
_STATISTICS_WRITING_DATE_UTC             : 2017-07-01 17:25:48
_STATISTICS_TAGS                         : BPS DURATION NUMBER_OF_FRAMES NUMBER_OF_BYTES

Video
ID                                       : 1
Format                                   : AVC
Format/Info                              : Advanced Video Codec
Format profile                           : [email protected]
Format settings, CABAC                   : Yes
Format settings, ReFrames                : 5 frames
Codec ID                                 : V_MPEG4/ISO/AVC
Duration                                 : 2h 2mn
Bit rate                                 : 10.4 Mbps
Width                                    : 1 920 pixels
Height                                   : 800 pixels
Display aspect ratio                     : 2.40:1
Frame rate                               : 24.000 fps
Color space                              : YUV
Chroma subsampling                       : 4:2:0
Bit depth                                : 8 bits
Scan type                                : Progressive
Bits/(Pixel*Frame)                       : 0.281
Stream size                              : 8.63 GiB (69%)
Writing library                          : x264 core 150 r2833+58 090e24f t_mod_Custom [[email protected] X86_64]
Encoding settings                        : cabac=1 / ref=5 / deblock=1:-2:-2 / analyse=0x3:0x133 / me=umh / subme=7 / psy=1 / fade_compensate=0.00 / psy_rd=1.05:0.00 / mixed_ref=1 / me_range=32 / chroma_me=1 / trellis=2 / 8x8dct=1 / cqm=0 / deadzone=21,11 / fast_pskip=0 / chroma_qp_offset=-2 / threads=18 / lookahead_threads=3 / sliced_threads=0 / nr=0 / decimate=0 / interlaced=0 / bluray_compat=0 / constrained_intra=0 / fgo=0 / bframes=3 / b_pyramid=2 / b_adapt=2 / b_bias=0 / direct=3 / weightb=1 / open_gop=0 / weightp=2 / keyint=240 / keyint_min=24 / scenecut=40 / intra_refresh=0 / rc_lookahead=40 / rc=2pass / mbtree=0 / bitrate=10355 / ratetol=1.0 / qcomp=0.65 / qpmin=0:0:0 / qpmax=69:69:69 / qpstep=4 / cplxblur=20.0 / qblur=0.5 / vbv_maxrate=50000 / vbv_bufsize=50000 / nal_hrd=none / filler=0 / ip_ratio=1.40 / pb_ratio=1.30 / aq=3:0.80 / aq-sensitivity=10.00 / aq-factor=1.00:1.00:1.00 / aq2=0 / aq3=0
Language                                 : English
Default                                  : Yes
Forced                                   : No
DURATION                                 : 02:02:49.084000000
NUMBER_OF_FRAMES                         : 176858
NUMBER_OF_BYTES                          : 9531997100
_STATISTICS_WRITING_APP                  : mkvmerge v8.3.0 ('Over the Horizon') 64bit
_STATISTICS_WRITING_DATE_UTC             : 2017-07-01 17:25:48
_STATISTICS_TAGS                         : BPS DURATION NUMBER_OF_FRAMES NUMBER_OF_BYTES

Audio #1
ID                                       : 2
Format                                   : DTS
Format/Info                              : Digital Theater Systems
Codec ID                                 : A_DTS
Duration                                 : 2h 2mn
Bit rate mode                            : Constant
Bit rate                                 : 1 510 Kbps
Channel(s)                               : 6 channels
Channel positions                        : Front: L C R, Side: L R, LFE
Sampling rate                            : 48.0 KHz
Bit depth                                : 24 bits
Compression mode                         : Lossy
Stream size                              : 1.30 GiB (10%)
Title                                    : DTS
Language                                 : Italian
Default                                  : Yes
Forced                                   : No

Audio #2
ID                                       : 3
Format                                   : AC-3
Format/Info                              : Audio Coding 3
Mode extension                           : CM (complete main)
Codec ID                                 : A_AC3
Duration                                 : 2h 2mn
Bit rate mode                            : Constant
Bit rate                                 : 640 Kbps
Channel(s)                               : 6 channels
Channel positions                        : Front: L C R, Side: L R, LFE
Sampling rate                            : 48.0 KHz
Bit depth                                : 16 bits
Compression mode                         : Lossy
Stream size                              : 562 MiB (4%)
Title                                    : AC3
Language                                 : Italian
Default                                  : No
Forced                                   : No

Audio #3
ID                                       : 4
Format                                   : DTS
Format/Info                              : Digital Theater Systems
Codec ID                                 : A_DTS
Duration                                 : 2h 2mn
Bit rate mode                            : Constant
Bit rate                                 : 1 510 Kbps
Channel(s)                               : 6 channels
Channel positions                        : Front: L C R, Side: L R, LFE
Sampling rate                            : 48.0 KHz
Bit depth                                : 24 bits
Compression mode                         : Lossy
Stream size                              : 1.30 GiB (10%)
Title                                    : DTS 5.1
Language                                 : English
Default                                  : No
Forced                                   : No

Audio #4
ID                                       : 5
Format                                   : AC-3
Format/Info                              : Audio Coding 3
Mode extension                           : CM (complete main)
Codec ID                                 : A_AC3
Duration                                 : 2h 2mn
Bit rate mode                            : Constant
Bit rate                                 : 640 Kbps
Channel(s)                               : 6 channels
Channel positions                        : Front: L C R, Side: L R, LFE
Sampling rate                            : 48.0 KHz
Bit depth                                : 16 bits
Compression mode                         : Lossy
Stream size                              : 562 MiB (4%)
Title                                    : AC3
Language                                 : English
Default                                  : No
Forced                                   : No

Text #1
ID                                       : 6
Format                                   : UTF-8
Codec ID                                 : S_TEXT/UTF8
Codec ID/Info                            : UTF-8 Plain Text
Title                                    : FORCED
Language                                 : Italian
Default                                  : Yes
Forced                                   : No

Text #2
ID                                       : 7
Format                                   : UTF-8
Codec ID                                 : S_TEXT/UTF8
Codec ID/Info                            : UTF-8 Plain Text
Title                                    : RELULAR
Language                                 : Italian
Default                                  : No
Forced                                   : No

Text #3
ID                                       : 8
Format                                   : UTF-8
Codec ID                                 : S_TEXT/UTF8
Codec ID/Info                            : UTF-8 Plain Text
Title                                    : REGULAR
Language                                 : English
Default                                  : No
Forced                                   : No

Menu
00:00:00.000                             : en:00:00:00.000
00:12:29.417                             : en:00:12:29.417
00:20:30.417                             : en:00:20:30.417
00:30:28.417                             : en:00:30:28.417
00:42:29.417                             : en:00:42:29.417
00:48:32.833                             : en:00:48:32.833
01:02:07.833                             : en:01:02:07.833
01:10:52.208                             : en:01:10:52.208
01:23:17.625                             : en:01:23:17.625
01:32:34.417                             : en:01:32:34.417
01:43:47.625                             : en:01:43:47.625
01:49:27.000                             : en:01:49:27.000



[center]RINGRAZIAMENTI



RESTATE IN SEED ALTRIMENTI

[/center]

Info: Per scaricare devi usare un client come uTorrent o Transmission
AnnounceURL
udp://tracker.opentrackr.org:1337/announce
Hash a6c3f284c9d1a6efb64b7100df12c701cba6b151
Peers seeds: 229 , leech: 166
Size 12.57 GB
Completato 2830x
Aggiunto 05.07.17 - 05:07:17
Uploader   ppb1
Votazione (Voti: 3)


Condividi questo bittorrent:


html/blog:


bbcode/forum:




Aggiungi Commento
Ultimi commenti
  
Esatto, la gente ha sempre da lamentarsi, è assurdo !!!
06/07 18.53
  
Scusate ma siamo impazziti? ma come cazzo si fa a criticare chi ci permette di vedere questi film in qualità altissima senza pagare e muovere il culo da casa? Io non ho parole.
06/07 17.08
  
Ad ogni modo cerchiamo di apprezzare il lavoro che fanno coloro che caricano queste release, d'altronde pensate che abbiamo film di ottima qualità a gratis, senza dover spendere un bel niente,  quindi mi sembra doveroso dire un GRAZIE, e se per caso ci dovesse essere qualche problema in un file/film può succedere purtroppo.
Sono dell'opinione che ci dobbiamo lamentare se paghiamo quel prodotto che ci rende insoddisfatti perchè abbiamo pagato, ma essendo che non sborsiamo nulla dalla nostra tasca la cosa più giusta è (dire un grazie senza lamentarsi)

Cordiali Saluti
06/07 03.27
Tutti commenti (15)


counter