* Dettagli Torrent   globale  | Commenti (0) 


- La Cosa (2011).H264.Italian.English.Ac3.5.1.multisub.iCV-MIRCrew -


Download via torrent:
Categoria bittorrent BDRip
Descrizione
The Thing - La Cosa (2011).H264.Italian.English.Ac3.5.1.multisub.iCV-MIRCrew

[center]by www.icv-crew.org


NO FOUND ONLY ORIGINAL RELEASE



My release is always in double track audio italian and Original audio
for select it use VLC or dvd player home
not use wmp

La Cosa - The Thing (2011)







Titolo originale The Thing
Paese di produzione USA, Canada
Anno 2011
Durata 102 min
Rapporto 2,35 : 1
Genere fantascienza, thriller
Regia Matthijs van Heijningen Jr.
Soggetto John W. Campbell Jr. (racconto)
Sceneggiatura Eric Heisserer
Produttore Marc Abraham, Eric Newman
Produttore esecutivo J. Miles Dale, David Foster, Lawrence Turman, Gabrielle Neimand
Casa di produzione Strike Entertainment
Distribuzione (Italia) Universal Pictures
Fotografia Michel Abramowicz
Montaggio Julian Clarke e Peter Boyle (montatori aggiuntivi Jono Griffith e Frank J. Urioste)
Musiche Marco Beltrami
Scenografia Sean Haworth
Costumi Luis Sequeira




   Mary Elizabeth Winstead: Kate Lloyd
   Joel Edgerton: Sam Carter
   Ulrich Thomsen: Dr. Sander Halvorson
   Eric Christian Olsen: Adam Finch
   Adewale Akinnuoye-Agbaje: Derek Jameson
   Paul Braunstein: Griggs
   Trond Espen Seim: Edvard Wolner
   Kim Bubbs: Juliette
   Jørgen Langhelle: Lars
   Jan Gunnar Røise: Olav
   Stig Henrik Hoff: Peder
   Kristofer Hivju: Jonas
   Jo Adrian Haavind: Henrik
   Carsten Bjørnlund: Karl
   Jonathan Lloyd Walker: Colin
   Ole Martin Aune Nilsen: Matias




Antartide, 1982. Un team di ricercatori norvegesi: Edvard, Jonas, Olav, Karl, Juliette, Lars, Henrik, Colin e Peder, scopre in un crepaccio il relitto di un'astronave extraterrestre. La paleontologa Kate Lloyd è reclutata dal dr. Sander Halvorson e dal suo assistente Adam per esaminare il reperto...............



At an Antarctica research site, the discovery of an alien craft leads to a confrontation between graduate student Kate Lloyd and scientist Dr. Sander Halvorson.















[spoiler]
General
Unique ID                                : 247883375155951020548230060291273819979 (0xBA7C99FB6FAB86F7F29EEC58B7DC874B)
Complete name                            : La Cosa - The Thing (2011).H264.ita.eng.multisub.iCV-MIRCrew.mkv
Format                                   : Matroska
Format version                           : Version 2
File size                                : 1.49 GiB
Duration                                 : 1h 38mn
Overall bit rate                         : 2 153 Kbps
Encoded date                             : UTC 2017-06-05T12:09:27Z
Writing application                      : HandBrake 0.10.5 2016021100
Writing library                          : Lavf55.12.0

Video
ID                                       : 1
Format                                   : AVC
Format/Info                              : Advanced Video Codec
Format profile                           : [email protected]
Format settings, CABAC                   : Yes
Format settings, ReFrames                : 4 frames
Codec ID                                 : V_MPEG4/ISO/AVC
Duration                                 : 1h 38mn
Bit rate                                 : 1 290 Kbps
Width                                    : 688 pixels
Height                                   : 288 pixels
Display aspect ratio                     : 2.40:1
Frame rate mode                          : Variable
Frame rate                               : 25.000 fps
Color space                              : YUV
Chroma subsampling                       : 4:2:0
Bit depth                                : 8 bits
Scan type                                : Progressive
Bits/(Pixel*Frame)                       : 0.260
Stream size                              : 903 MiB (59%)
Writing library                          : x264 core 142 r2479 dd79a61
Encoding settings                        : cabac=1 / ref=1 / deblock=1:0:0 / analyse=0x1:0x111 / me=hex / subme=2 / psy=1 / psy_rd=1.00:0.00 / mixed_ref=0 / me_range=16 / chroma_me=1 / trellis=0 / 8x8dct=0 / cqm=0 / deadzone=21,11 / fast_pskip=1 / chroma_qp_offset=0 / threads=3 / lookahead_threads=1 / sliced_threads=0 / nr=0 / decimate=1 / interlaced=0 / bluray_compat=0 / constrained_intra=0 / bframes=3 / b_pyramid=2 / b_adapt=1 / b_bias=0 / direct=1 / weightb=1 / open_gop=0 / weightp=1 / keyint=250 / keyint_min=25 / scenecut=40 / intra_refresh=0 / rc_lookahead=10 / rc=abr / mbtree=1 / bitrate=1290 / ratetol=1.0 / qcomp=0.60 / qpmin=0 / qpmax=69 / qpstep=4 / vbv_maxrate=20000 / vbv_bufsize=25000 / nal_hrd=none / filler=0 / ip_ratio=1.40 / aq=1:1.00
Default                                  : Yes
Forced                                   : No
Color primaries                          : BT.470-6 System B, BT.470-6 System G, BT.601-6 625, BT.1358 625, BT.1700 625 PAL, BT.1700 625 SECAM
Transfer characteristics                 : BT.709-5, BT.1361
Matrix coefficients                      : BT.601-6 525, BT.1358 525, BT.1700 NTSC, SMPTE 170M

Audio #1
ID                                       : 2
Format                                   : AC-3
Format/Info                              : Audio Coding 3
Mode extension                           : CM (complete main)
Codec ID                                 : A_AC3
Duration                                 : 1h 38mn
Bit rate mode                            : Constant
Bit rate                                 : 448 Kbps
Channel(s)                               : 6 channels
Channel positions                        : Front: L C R, Side: L R, LFE
Sampling rate                            : 48.0 KHz
Bit depth                                : 16 bits
Compression mode                         : Lossy
Delay relative to video                  : 1mn 5s
Stream size                              : 317 MiB (21%)
Title                                    : Surround
Language                                 : Italian
Default                                  : Yes
Forced                                   : No

Audio #2
ID                                       : 3
Format                                   : AC-3
Format/Info                              : Audio Coding 3
Mode extension                           : CM (complete main)
Codec ID                                 : A_AC3
Duration                                 : 1h 38mn
Bit rate mode                            : Constant
Bit rate                                 : 384 Kbps
Channel(s)                               : 6 channels
Channel positions                        : Front: L C R, Side: L R, LFE
Sampling rate                            : 48.0 KHz
Bit depth                                : 16 bits
Compression mode                         : Lossy
Delay relative to video                  : 1mn 5s
Stream size                              : 271 MiB (18%)
Title                                    : Surround
Language                                 : English
Default                                  : No
Forced                                   : No

Text #1
ID                                       : 4
Format                                   : VobSub
Codec ID                                 : S_VOBSUB
Codec ID/Info                            : The same subtitle format used on DVDs
Language                                 : Italian
Default                                  : No
Forced                                   : No

Text #2
ID                                       : 5
Format                                   : VobSub
Codec ID                                 : S_VOBSUB
Codec ID/Info                            : The same subtitle format used on DVDs
Language                                 : English
Default                                  : No
Forced                                   : No

Text #3
ID                                       : 6
Format                                   : VobSub
Codec ID                                 : S_VOBSUB
Codec ID/Info                            : The same subtitle format used on DVDs
Language                                 : German
Default                                  : No
Forced                                   : No

Text #4
ID                                       : 7
Format                                   : VobSub
Codec ID                                 : S_VOBSUB
Codec ID/Info                            : The same subtitle format used on DVDs
Language                                 : Italian
Default                                  : No
Forced                                   : No

Text #5
ID                                       : 8
Format                                   : VobSub
Codec ID                                 : S_VOBSUB
Codec ID/Info                            : The same subtitle format used on DVDs
Language                                 : English
Default                                  : No
Forced                                   : No

Text #6
ID                                       : 9
Format                                   : VobSub
Codec ID                                 : S_VOBSUB
Codec ID/Info                            : The same subtitle format used on DVDs
Language                                 : German
Default                                  : No
Forced                                   : No

Text #7
ID                                       : 10
Format                                   : VobSub
Codec ID                                 : S_VOBSUB
Codec ID/Info                            : The same subtitle format used on DVDs
Language                                 : Italian
Default                                  : No
Forced                                   : No

Text #8
ID                                       : 11
Format                                   : VobSub
Codec ID                                 : S_VOBSUB
Codec ID/Info                            : The same subtitle format used on DVDs
Language                                 : English
Default                                  : No
Forced                                   : No

Text #9
ID                                       : 12
Format                                   : VobSub
Codec ID                                 : S_VOBSUB
Codec ID/Info                            : The same subtitle format used on DVDs
Language                                 : German
Default                                  : No
Forced                                   : No

Menu
00:00:00.000                             : :Chapter 1
00:04:20.960                             : :Chapter 2
00:10:25.320                             : :Chapter 3
00:14:05.440                             : :Chapter 4
00:16:23.880                             : :Chapter 5
00:19:49.000                             : :Chapter 6
00:24:07.840                             : :Chapter 7
00:31:29.080                             : :Chapter 8
00:36:32.600                             : :Chapter 9
00:41:17.040                             : :Chapter 10
00:49:09.880                             : :Chapter 11
00:52:57.600                             : :Chapter 12
00:57:36.840                             : :Chapter 13
01:02:12.520                             : :Chapter 14
01:07:06.400                             : :Chapter 15
01:11:36.160                             : :Chapter 16
01:17:39.640                             : :Chapter 17
01:21:18.160                             : :Chapter 18
01:26:48.360                             : :Chapter 19
01:31:03.200                             : :Chapter 20




[/spoiler]

[/center]

Info: Per scaricare devi usare un client come uTorrent o Transmission
AnnounceURL
udp://tracker.coppersurfer.tk:6969/announce
Hash 00321c471b10739cd54c29281769685e766910cd
Peers seeds: 63 , leech: 18
Size 1.49 GB
Completato 1527x
Aggiunto 02.07.17 - 05:07:39
Uploader   robbyrs
Votazione (Voti: 1)


Condividi questo bittorrent:


html/blog:


bbcode/forum:




Aggiungi Commento


counter