* Dettagli Torrent   globale  | Commenti (0) 


- Rosso Istanbul (2017).H264.Italian.Turkish.Ac3.5.1.sub.ita.iCV-MIRCrew -


Download via torrent:
Categoria bittorrent BDRip
Descrizione
Rosso Istanbul (2017).H264.Italian.Turkish.Ac3.5.1.sub.ita.iCV-MIRCrew

[center]by www.icv-crew.org


NO FOUND ONLY ORIGINAL RELEASE



My release is always in double track audio italian and Original audio
for select it use VLC or dvd player home
not use wmp

Rosso Istanbul - ?stanbul K?rm?z?s? (2017)

PRESENTI ANCHE i SOTTOTITOLI

ESTERNI IN SRT (ita)








Titolo originale ?stanbul K?rm?z?s?
Lingua originale turco
Paese di produzione Turchia, Italia
Anno 2017
Genere drammatico
Regia Ferzan Özpetek
Soggetto Ferzan Özpetek
Sceneggiatura Gianni Romoli, Ferzan Özpetek, Valia Santella
Produttore Gianni Romoli, Tilde Corsi, Necati Akpinar, Zumrut Arol Bekce
Casa di produzione R&C Produzioni, Faros Film, BMK, Imaj in collaborazione con Rai Cinema
Distribuzione (Italia) 01 Distribution
Fotografia Gian Filippo Corticelli
Montaggio Patrizio Marone
Musiche Giuliano Taviani, Carmelo Travia
Scenografia Deniz Göktürk




   Halit Ergenç: Orhan Sahin
   Nejat Isler: Deniz Soysal
   Mehmet Günsür: Yusuf
   Çi?dem Sel???k Onat: Süreyya
   Tuba Büyüküstün: Neval
   Serra Y?lmaz: Sibel
   Zerrin Tekindor: Aylin
   Ayten Gökçer: Betül
   ?pek Bilgin: Güzin




Lo scrittore Orhan Sahin torna a Istanbul dopo tanti anni per aiutare il noto regista Deniz Soysal a scrivere il suo primo romanzo. Orhan si ritrova a guardare con nostalgia i luoghi dove è nato e cresciuto, rivivendo i rapporti con amici, familiari e amori passati..............



Deniz, an acclaimed author, is writing a book about his family and friends. He asks Orhan for critics. The day Orhan came to Istanbul from London, Deniz disappears. Orhan, Deniz's friend Neval and Deniz's lover Yusuf tries to find Deniz.













[spoiler]
General
Unique ID                                : 111023209444523771813159300606641622666 (0x53864AD80C1442D06CFAFBB566D4CE8A)
Complete name                            : Rosso Istanbul (2017).H264.Ita.Tur.sub.ita.iCV-MIRCrew.mkv
Format                                   : Matroska
Format version                           : Version 2
File size                                : 1.54 GiB
Duration                                 : 1h 53mn
Overall bit rate                         : 1 935 Kbps
Encoded date                             : UTC 2017-06-27T08:30:09Z
Writing application                      : HandBrake 0.10.5 2016021100
Writing library                          : Lavf55.12.0

Video
ID                                       : 1
Format                                   : AVC
Format/Info                              : Advanced Video Codec
Format profile                           : [email protected]
Format settings, CABAC                   : Yes
Format settings, ReFrames                : 4 frames
Codec ID                                 : V_MPEG4/ISO/AVC
Duration                                 : 1h 53mn
Bit rate                                 : 1 290 Kbps
Width                                    : 720 pixels
Height                                   : 304 pixels
Display aspect ratio                     : 2.35:1
Frame rate mode                          : Variable
Frame rate                               : 23.976 fps
Color space                              : YUV
Chroma subsampling                       : 4:2:0
Bit depth                                : 8 bits
Scan type                                : Progressive
Bits/(Pixel*Frame)                       : 0.246
Stream size                              : 1 023 MiB (65%)
Writing library                          : x264 core 142 r2479 dd79a61
Encoding settings                        : cabac=1 / ref=1 / deblock=1:-1:-1 / analyse=0x1:0x111 / me=hex / subme=2 / psy=1 / psy_rd=1.00:0.15 / mixed_ref=0 / me_range=16 / chroma_me=1 / trellis=0 / 8x8dct=0 / cqm=0 / deadzone=21,11 / fast_pskip=1 / chroma_qp_offset=0 / threads=12 / lookahead_threads=2 / sliced_threads=0 / nr=0 / decimate=1 / interlaced=0 / bluray_compat=0 / constrained_intra=0 / bframes=3 / b_pyramid=2 / b_adapt=1 / b_bias=0 / direct=1 / weightb=1 / open_gop=0 / weightp=1 / keyint=240 / keyint_min=24 / scenecut=40 / intra_refresh=0 / rc_lookahead=10 / rc=abr / mbtree=1 / bitrate=1290 / ratetol=1.0 / qcomp=0.60 / qpmin=0 / qpmax=69 / qpstep=4 / vbv_maxrate=20000 / vbv_bufsize=25000 / nal_hrd=none / filler=0 / ip_ratio=1.40 / aq=1:1.00
Default                                  : Yes
Forced                                   : No
Color primaries                          : BT.709-5, BT.1361, IEC 61966-2-4, SMPTE RP177
Transfer characteristics                 : BT.709-5, BT.1361
Matrix coefficients                      : BT.709-5, BT.1361, IEC 61966-2-4 709, SMPTE RP177

Audio #1
ID                                       : 2
Format                                   : AC-3
Format/Info                              : Audio Coding 3
Mode extension                           : CM (complete main)
Codec ID                                 : A_AC3
Duration                                 : 1h 53mn
Bit rate mode                            : Constant
Bit rate                                 : 448 Kbps
Channel(s)                               : 6 channels
Channel positions                        : Front: L C R, Side: L R, LFE
Sampling rate                            : 48.0 KHz
Bit depth                                : 16 bits
Compression mode                         : Lossy
Delay relative to video                  : 1mn 5s
Stream size                              : 365 MiB (23%)
Title                                    : Surround
Language                                 : Italian
Default                                  : Yes
Forced                                   : No

Audio #2
ID                                       : 3
Format                                   : AC-3
Format/Info                              : Audio Coding 3
Mode extension                           : CM (complete main)
Codec ID                                 : A_AC3
Duration                                 : 1h 53mn
Bit rate mode                            : Constant
Bit rate                                 : 192 Kbps
Channel(s)                               : 2 channels
Channel positions                        : Front: L R
Sampling rate                            : 48.0 KHz
Bit depth                                : 16 bits
Compression mode                         : Lossy
Delay relative to video                  : 1mn 5s
Stream size                              : 156 MiB (10%)
Title                                    : Stereo
Language                                 : Turkish
Default                                  : No
Forced                                   : No

Text #1
ID                                       : 4
Format                                   : ASS
Codec ID                                 : S_TEXT/ASS
Codec ID/Info                            : Advanced Sub Station Alpha
Compression mode                         : Lossless
Language                                 : Italian
Default                                  : No
Forced                                   : No

Text #2
ID                                       : 5
Format                                   : ASS
Codec ID                                 : S_TEXT/ASS
Codec ID/Info                            : Advanced Sub Station Alpha
Compression mode                         : Lossless
Language                                 : Italian
Default                                  : No
Forced                                   : No

Menu
00:00:00.000                             : :Capitolo 01
00:09:07.964                             : :Capitolo 02
00:17:53.822                             : :Capitolo 03
00:22:47.908                             : :Capitolo 04
00:33:51.863                             : :Capitolo 05
00:42:47.314                             : :Capitolo 06
00:55:59.856                             : :Capitolo 07
01:12:06.739                             : :Capitolo 08
01:28:22.422                             : :Capitolo 09
01:35:21.215                             : :Capitolo 10
01:41:06.435                             : :Capitolo 11
01:46:02.606                             : :Capitolo 12



[/spoiler]

[/center]

Info: Per scaricare devi usare un client come uTorrent o Transmission
AnnounceURL
udp://tracker.coppersurfer.tk:6969/announce
Hash 556b06cd1a21f0fa69bcb3916760284479acdc0f
Peers seeds: 53 , leech: 12
Size 1.54 GB
Completato 1266x
Aggiunto 02.07.17 - 05:07:21
Uploader   robbyrs
Votazione (Voti: 0)


Condividi questo bittorrent:


html/blog:


bbcode/forum:




Aggiungi Commento


counter