* Dettagli Torrent   globale  | Commenti (1) 


- Mamma o Papa? (2017).H264.Italian.Ac3.5.1.sub.ita.NUita.iCV-MIRCrew -


Download via torrent:
Categoria bittorrent BDRip
Descrizione
Mamma o Papa? (2017).H264.Italian.Ac3.5.1.sub.ita.NUita.iCV-MIRCrew

[center]by www.icv-crew.org


NO FOUND ONLY ORIGINAL RELEASE



My release is always in double track audio italian and Original audio
for select it use VLC or dvd player home
not use wmp

Mamma o Papa? (2017)








   DATA USCITA: 14 febbraio 2017
   GENERE: Commedia
   ANNO: 2017
   REGIA: Riccardo Milani
   SCENEGGIATURA: Giulia Calenda, Paola Cortellesi, Riccardo Milani
   FOTOGRAFIA: Saverio Guarna
   MONTAGGIO: Patrizia Ceresani
   MUSICHE: Andrea Guerra
   PRODUZIONE: Prodotto dalla Wildside di Mario Gianani e Lorenzo Mieli e Medusa Film.
   DISTRIBUZIONE: Medusa Film
   PAESE: Italia
   DURATA: 90 Min




Antonio Albanese, Paola Cortellesi, Claudio Gioè, Carlo Buccirosso, Anna Bonaiuto, Matilde Gioli, Roberto De Francesco, Stefania Rocca, Luca Angeletti



Dopo quindici anni di matrimonio, Valeria e Nicola hanno deciso di divorziare in maniera civile. L'amore finisce, non è una tragedia ed è meglio fermarsi in tempo prima di diventare due amici che si fanno compagnia la sera davanti alla televisione. Sono d'accordo su tutto, alimenti, case, affidamento congiunto dei figli.



A divorced couple fights for the custody of their three children: neither of them wants it. Mom wants to leave them to dad, and vice versa.













[spoiler]
General
Unique ID                                : 111040014847275247370819515415317683264 (0x5389876A0D026D481821DB9667DF9C40)
Complete name                            : Mamma o Papa (2017).H264.ita.sub.Nuita.iCV-MIRCrew\Mamma o Papa (2017).H264.ita.sub.Nuita.iCV-MIRCrew.mkv
Format                                   : Matroska
Format version                           : Version 2
File size                                : 1.24 GiB
Duration                                 : 1h 42mn
Overall bit rate                         : 1 732 Kbps
Movie name                               : www.icv-crew.org
Encoded date                             : UTC 2017-06-09 17:44:49
Writing application                      : Lavf54.63.100
Writing library                          : Lavf54.63.100
COPYRIGHT                                : robbyrs

Video
ID                                       : 1
Format                                   : AVC
Format/Info                              : Advanced Video Codec
Format profile                           : [email protected]
Format settings, CABAC                   : Yes
Format settings, ReFrames                : 2 frames
Codec ID                                 : V_MPEG4/ISO/AVC
Duration                                 : 1h 42mn
Bit rate                                 : 1 290 Kbps
Width                                    : 720 pixels
Height                                   : 304 pixels
Display aspect ratio                     : 2.40:1
Frame rate mode                          : Variable
Frame rate                               : 24.000 fps
Color space                              : YUV
Chroma subsampling                       : 4:2:0
Bit depth                                : 8 bits
Scan type                                : Progressive
Bits/(Pixel*Frame)                       : 0.246
Stream size                              : 913 MiB (72%)
Writing library                          : x264 core 130 r2273
Encoding settings                        : cabac=1 / ref=2 / deblock=1:0:0 / analyse=0x1:0x131 / me=hex / subme=7 / psy=1 / psy_rd=1.00:0.00 / mixed_ref=0 / me_range=16 / chroma_me=1 / trellis=1 / 8x8dct=0 / cqm=0 / deadzone=21,11 / fast_pskip=1 / chroma_qp_offset=-2 / threads=12 / lookahead_threads=2 / sliced_threads=0 / nr=0 / decimate=1 / interlaced=0 / bluray_compat=0 / constrained_intra=0 / bframes=3 / b_pyramid=0 / b_adapt=1 / b_bias=0 / direct=3 / weightb=1 / open_gop=0 / weightp=2 / keyint=240 / keyint_min=24 / scenecut=40 / intra_refresh=0 / rc_lookahead=40 / rc=abr / mbtree=1 / bitrate=1290 / ratetol=1.0 / qcomp=0.60 / qpmin=10 / qpmax=69 / qpstep=4 / vbv_maxrate=24000 / vbv_bufsize=24000 / nal_hrd=none / ip_ratio=1.40 / aq=1:1.00
Language                                 : Italian
Default                                  : Yes
Forced                                   : No
DURATION                                 : 01:42:09.459000000
NUMBER_OF_FRAMES                         : 147107
NUMBER_OF_BYTES                          : 6699738071
_STATISTICS_WRITING_APP                  : mkvmerge v8.7.0 ('All of the above') 64bit
_STATISTICS_WRITING_DATE_UTC             : 2017-05-31 14:49:15
_STATISTICS_TAGS                         : BPS DURATION NUMBER_OF_FRAMES NUMBER_OF_BYTES

Audio
ID                                       : 2
Format                                   : AC-3
Format/Info                              : Audio Coding 3
Mode extension                           : CM (complete main)
Codec ID                                 : A_AC3
Duration                                 : 1h 42mn
Bit rate mode                            : Constant
Bit rate                                 : 448 Kbps
Channel(s)                               : 2 channels
Channel positions                        : Front: L R
Sampling rate                            : 48.0 KHz
Bit depth                                : 16 bits
Compression mode                         : Lossy
Delay relative to video                  : 1mn 5s
Stream size                              : 327 MiB (26%)
Title                                    : AC3 ITA
Language                                 : Italian
Default                                  : No
Forced                                   : No
DURATION                                 : 01:42:10.016000000
NUMBER_OF_FRAMES                         : 191563
NUMBER_OF_BYTES                          : 490401280
_STATISTICS_WRITING_APP                  : mkvmerge v8.7.0 ('All of the above') 64bit
_STATISTICS_WRITING_DATE_UTC             : 2017-05-31 14:49:15
_STATISTICS_TAGS                         : BPS DURATION NUMBER_OF_FRAMES NUMBER_OF_BYTES

Text #1
ID                                       : 3
Format                                   : ASS
Codec ID                                 : S_TEXT/ASS
Codec ID/Info                            : Advanced Sub Station Alpha
Compression mode                         : Lossless
Title                                    : FORCED
Language                                 : Italian
Default                                  : Yes
Forced                                   : Yes
DURATION                                 : 00:00:25.125000000
NUMBER_OF_FRAMES                         : 5
NUMBER_OF_BYTES                          : 178
_STATISTICS_WRITING_APP                  : mkvmerge v8.7.0 ('All of the above') 64bit
_STATISTICS_WRITING_DATE_UTC             : 2017-05-31 14:49:15
_STATISTICS_TAGS                         : BPS DURATION NUMBER_OF_FRAMES NUMBER_OF_BYTES

Text #2
ID                                       : 4
Format                                   : ASS
Codec ID                                 : S_TEXT/ASS
Codec ID/Info                            : Advanced Sub Station Alpha
Compression mode                         : Lossless
Title                                    : REGULAR
Language                                 : Italian
Default                                  : No
Forced                                   : No
DURATION                                 : 01:38:11.291000000
NUMBER_OF_FRAMES                         : 1105
NUMBER_OF_BYTES                          : 57357
_STATISTICS_WRITING_APP                  : mkvmerge v8.7.0 ('All of the above') 64bit
_STATISTICS_WRITING_DATE_UTC             : 2017-05-31 14:49:15
_STATISTICS_TAGS                         : BPS DURATION NUMBER_OF_FRAMES NUMBER_OF_BYTES

Menu
00:00:00.000                             : :00:00:00.000
00:07:05.342                             : :00:07:05.342
00:14:28.201                             : :00:14:28.201
00:20:13.838                             : :00:20:13.838
00:29:27.099                             : :00:29:27.099
00:39:02.590                             : :00:39:02.590
00:50:56.804                             : :00:50:56.804
00:59:52.756                             : :00:59:52.756
01:08:53.129                             : :01:08:53.129
01:16:19.950                             : :01:16:19.950
01:25:27.706                             : :01:25:27.706
01:35:23.259                             : :01:35:23.259



[/spoiler]

[/center]

Info: Per scaricare devi usare un client come uTorrent o Transmission
AnnounceURL
udp://tracker.coppersurfer.tk:6969/announce
Hash 23fa5749b5b29a399c4f97eda1736548754542b0
Peers seeds: 165 , leech: 30
Size 1.24 GB
Completato 2386x
Aggiunto 29.06.17 - 03:06:06
Uploader   robbyrs
Votazione (Voti: 3)


Condividi questo bittorrent:


html/blog:


bbcode/forum:




Aggiungi Commento
Ultimi commenti
 ergatto55ergatto55   
bravissimo audio 10 video 10
30/06 07.15
Tutti commenti (1)


counter