* Dettagli Torrent   globale  | Commenti (0) 


- Incontrerai l uomo dei tuoi sogni (2010).H264.Italian.English.Ac3.multisub.iCV-MIRCrew -


Download via torrent:
Categoria bittorrent BDRip
Descrizione
You Will Meet a Tall Dark Stranger - Incontrerai l uomo dei tuoi sogni (2010).H264.Italian.English.Ac3.multisub.iCV-MIRCrew


[center]by www.icv-crew.org


NO FOUND ONLY ORIGINAL RELEASE



My release is always in double track audio italian and Original audio
for select it use VLC or dvd player home
not use wmp

Incontrerai l uomo dei tuoi sogni - You Will Meet a Tall Dark Stranger (2010)

PRESENTI ANCHE i SOTTOTITOLI

ESTERNI IN SRT (multisub)







Titolo originale You Will Meet a Tall Dark Stranger
Lingua originale inglese
Paese di produzione USA, Spagna
Anno 2010
Durata 98 min
Rapporto 1,85:1
Genere commedia, drammatico
Regia Woody Allen
Soggetto Woody Allen
Sceneggiatura Woody Allen
Produttore Letty Aronson, Stephen Tenenbaum, Jaume Roures
Produttore esecutivo Javier Méndez
Casa di produzione Mediapro, Versátil Cinema, Gravier Productions, Antena 3 Films, Dippermouth
Distribuzione (Italia) Medusa
Fotografia Vilmos Zsigmond
Montaggio Alisa Lepselter
Scenografia Jim Clay
Costumi Beatrix Aruna Pasztor




   Antonio Banderas: Greg Clemente
   Josh Brolin: Roy
   Anthony Hopkins: Alfie
   Gemma Jones: Helena
   Freida Pinto: Dia
   Lucy Punch: Charmaine
   Naomi Watts: Sally
   Anupam Kher: Padre di Dia
   Roger Ashton-Griffiths: Jonathan
   Ewen Bremner: Henry Strangler
   Anna Friel: Iris




Alfie e Helena sono una coppia matura in crisi. Alfie sente di voler ritrovare gli anni perduti e sposa un'avvenente ragazza squillo di nome Charmaine, evidentemente interessata al rigonfiamento del suo portafogli. Helena, abbandonata nel momento della sfioritura, sceglie di perdere il legame con la realtà e affida ogni sua decisione a una ciarlatana che si spaccia per un veggente...................



Sally's parents' marriage breaks up when her father undergoes a mid-life crisis and impulsively weds a prostitute. Meanwhile, Sally's own marriage also begins to disintegrate.  

















[spoiler]
General
Unique ID                                : 115351361789423077276009805615326421905 (0x56C7DD3ADFF8E43F5B58B2F27745E391)
Complete name                            : Incontrerai l uomo dei tuoi sogni - You Will Meet a Tall Dark Stranger (2010)H264.ita.eng.multisub.iCV-MIRCrew.mkv
Format                                   : Matroska
Format version                           : Version 2
File size                                : 1.13 GiB
Duration                                 : 1h 38mn
Overall bit rate                         : 1 647 Kbps
Movie name                               : www.icv-crew.org
Encoded date                             : UTC 2015-04-16 07:33:05
Writing application                      : Lavf54.63.100
Writing library                          : Lavf54.63.100
COPYRIGHT                                : robbyrs

Video
ID                                       : 1
Format                                   : AVC
Format/Info                              : Advanced Video Codec
Format profile                           : [email protected]
Format settings, CABAC                   : Yes
Format settings, ReFrames                : 2 frames
Codec ID                                 : V_MPEG4/ISO/AVC
Duration                                 : 1h 38mn
Bit rate                                 : 1 290 Kbps
Width                                    : 688 pixels
Height                                   : 384 pixels
Display aspect ratio                     : 16:9
Original display aspect ratio            : 16:9
Frame rate mode                          : Variable
Frame rate                               : 23.976 fps
Color space                              : YUV
Chroma subsampling                       : 4:2:0
Bit depth                                : 8 bits
Scan type                                : Progressive
Bits/(Pixel*Frame)                       : 0.204
Stream size                              : 867 MiB (75%)
Writing library                          : x264 core 130 r2273
Encoding settings                        : cabac=1 / ref=2 / deblock=1:0:0 / analyse=0x1:0x131 / me=hex / subme=7 / psy=1 / psy_rd=1.00:0.00 / mixed_ref=0 / me_range=16 / chroma_me=1 / trellis=1 / 8x8dct=0 / cqm=0 / deadzone=21,11 / fast_pskip=1 / chroma_qp_offset=-2 / threads=12 / lookahead_threads=2 / sliced_threads=0 / nr=0 / decimate=1 / interlaced=0 / bluray_compat=0 / constrained_intra=0 / bframes=3 / b_pyramid=0 / b_adapt=1 / b_bias=0 / direct=3 / weightb=1 / open_gop=0 / weightp=2 / keyint=230 / keyint_min=23 / scenecut=40 / intra_refresh=0 / rc_lookahead=40 / rc=abr / mbtree=1 / bitrate=1290 / ratetol=1.0 / qcomp=0.60 / qpmin=10 / qpmax=69 / qpstep=4 / vbv_maxrate=24000 / vbv_bufsize=24000 / nal_hrd=none / ip_ratio=1.40 / aq=1:1.00
Language                                 : Italian
Default                                  : Yes
Forced                                   : No

Audio #1
ID                                       : 2
Format                                   : AC-3
Format/Info                              : Audio Coding 3
Mode extension                           : CM (complete main)
Codec ID                                 : A_AC3
Duration                                 : 1h 38mn
Bit rate mode                            : Constant
Bit rate                                 : 192 Kbps
Channel(s)                               : 2 channels
Channel positions                        : Front: L R
Sampling rate                            : 48.0 KHz
Bit depth                                : 16 bits
Compression mode                         : Lossy
Delay relative to video                  : 1mn 5s
Stream size                              : 135 MiB (12%)
Title                                    : Italiano AC3 2.0 192Kbps
Language                                 : Italian
Default                                  : Yes
Forced                                   : No

Audio #2
ID                                       : 3
Format                                   : AC-3
Format/Info                              : Audio Coding 3
Mode extension                           : CM (complete main)
Codec ID                                 : A_AC3
Duration                                 : 1h 38mn
Bit rate mode                            : Constant
Bit rate                                 : 192 Kbps
Channel(s)                               : 2 channels
Channel positions                        : Front: L R
Sampling rate                            : 48.0 KHz
Bit depth                                : 16 bits
Compression mode                         : Lossy
Delay relative to video                  : 1mn 5s
Stream size                              : 135 MiB (12%)
Title                                    : English AC3 3.0 224Kbps
Language                                 : English
Default                                  : No
Forced                                   : No


[/spoiler]

[/center]

Info: Per scaricare devi usare un client come uTorrent o Transmission
AnnounceURL
udp://tracker.coppersurfer.tk:6969/announce
Hash 2ce06b8f6a26b4246d92abd9c3f85586e35c15d0
Peers seeds: 37 , leech: 11
Size 1.14 GB
Completato 528x
Aggiunto 29.06.17 - 03:06:55
Uploader   robbyrs
Votazione (Voti: 1)


Condividi questo bittorrent:


html/blog:


bbcode/forum:




Aggiungi Commento


counter