* Dettagli Torrent   globale  | Commenti (0) 


- Street Fighter - Sfida finale (1994).H264.Italian.English.Ac3.5.1.sub.ita.eng.iCV-MIRCrew -


Download via torrent:
Categoria bittorrent BDRip
Descrizione
Street Fighter - Sfida finale  (1994).H264.Italian.English.Ac3.5.1.sub.ita.eng.iCV-MIRCrew

[center]


NO FOUND ONLY ORIGINAL RELEASE



My release is always in double track audio italian and Original audio
for select it use VLC or dvd player home
not use wmp

Street Fighter - Street Fighter - Sfida finale  (1994)

PRESENTI ANCHE i SOTTOTITOLI

ESTERNI IN SRT (ita/eng)







Titolo originale Street Fighter
Paese di produzione USA, Giappone
Anno 1994
Durata 102 min
Genere azione, fantascienza, fantastico, avventura
Regia Steven E. de Souza
Sceneggiatura Steven E. de Souza
Produttore Edward R. Pressman Kenzo Tsujimoto
Akio Sakai
Fotografia William A. Fraker
Montaggio Edward M. Abroms, Donn Aron, Dov Hoenig, Anthony Redman, Robert F. Shugrue
Musiche Graeme Revell
Scenografia William J. Creber



Jean-Claude Van Damme: Colonnello William F. Guile
Raúl Juliá: Generale M. Bison
Ming-Na Wen: Chun-Li Zang
Damian Chapa: Ken Masters
Byron Mann: Ryu Hoshi
Kylie Minogue: Luogotenente Cammy White
Wes Studi: Victor Sagat
Jay Tavare: Vega
Grand L. Bush: Balrog
Peter Navy Tuiasosopo: Edmond Honda
Andrew Bryniarski: Zangief
Robert Mammone: Carlos Blanka
Roshan Seth: Dr. Dhalsim
Gregg Rainwater: Thunder Hawk
Kenya Sawada: Capitano Sawada
Simon Callow: Funzionario delle Nazioni alleate



A Shadaloo, piccola cittadina costiera in un non ben precisato punto del Sud-Est Asiatico, il generale M. Bison (Raul Julia) regna come un dittatore. Dopo aver catturato cittadini occidentali (membri di associazioni internazionali d'aiuto), Bison pone un ultimatum alle Nazioni Alleate che lo stanno combattendo: pagare un riscatto di 20 miliardi di $ entro 72 ore o gli ostaggi moriranno...................



Col. Guile and various other martial arts heroes fight against the tyranny of Dictator M. Bison and his cohorts.















[spoiler]
General
Unique ID                                : 269300771530610326096141599111517428504 (0xCA997126806D34AEF0B205553DC1DB1
Complete name                            : Street Fighter (1994).H264.ita.eng.sub.ita.eng.iCV-MIRCrew.mkv
Format                                   : Matroska
Format version                           : Version 2
File size                                : 1.55 GiB
Duration                                 : 1h 41mn
Overall bit rate                         : 2 181 Kbps
Movie name                               : www.icv-crew.org
Encoded date                             : UTC 2017-04-04 17:49:00
Writing application                      : Lavf54.63.100
Writing library                          : Lavf54.63.100
COPYRIGHT                                : robbyrs

Video
ID                                       : 1
Format                                   : AVC
Format/Info                              : Advanced Video Codec
Format profile                           : [email protected]
Format settings, CABAC                   : Yes
Format settings, ReFrames                : 2 frames
Codec ID                                 : V_MPEG4/ISO/AVC
Duration                                 : 1h 41mn
Bit rate                                 : 1 290 Kbps
Width                                    : 720 pixels
Height                                   : 300 pixels
Display aspect ratio                     : 2.40:1
Frame rate mode                          : Variable
Frame rate                               : 23.976 fps
Color space                              : YUV
Chroma subsampling                       : 4:2:0
Bit depth                                : 8 bits
Scan type                                : Progressive
Bits/(Pixel*Frame)                       : 0.249
Stream size                              : 901 MiB (57%)
Writing library                          : x264 core 130 r2273
Encoding settings                        : cabac=1 / ref=2 / deblock=1:0:0 / analyse=0x1:0x131 / me=hex / subme=7 / psy=1 / psy_rd=1.00:0.00 / mixed_ref=0 / me_range=16 / chroma_me=1 / trellis=1 / 8x8dct=0 / cqm=0 / deadzone=21,11 / fast_pskip=1 / chroma_qp_offset=-2 / threads=12 / lookahead_threads=2 / sliced_threads=0 / nr=0 / decimate=1 / interlaced=0 / bluray_compat=0 / constrained_intra=0 / bframes=3 / b_pyramid=0 / b_adapt=1 / b_bias=0 / direct=3 / weightb=1 / open_gop=0 / weightp=2 / keyint=230 / keyint_min=23 / scenecut=40 / intra_refresh=0 / rc_lookahead=40 / rc=abr / mbtree=1 / bitrate=1290 / ratetol=1.0 / qcomp=0.60 / qpmin=10 / qpmax=69 / qpstep=4 / vbv_maxrate=24000 / vbv_bufsize=24000 / nal_hrd=none / ip_ratio=1.40 / aq=1:1.00
Default                                  : Yes
Forced                                   : No
DURATION                                 : 01:41:28.099000000
NUMBER_OF_FRAMES                         : 145968
NUMBER_OF_BYTES                          : 8736286060
_STATISTICS_WRITING_APP                  : mkvmerge v10.0.0 ('To Drown In You') 64bit
_STATISTICS_WRITING_DATE_UTC             : 2017-04-04 17:49:00
_STATISTICS_TAGS                         : BPS DURATION NUMBER_OF_FRAMES NUMBER_OF_BYTES

Audio #1
ID                                       : 2
Format                                   : AC-3
Format/Info                              : Audio Coding 3
Mode extension                           : CM (complete main)
Codec ID                                 : A_AC3
Duration                                 : 1h 41mn
Bit rate mode                            : Constant
Bit rate                                 : 448 Kbps
Channel(s)                               : 6 channels
Channel positions                        : Front: L C R, Side: L R, LFE
Sampling rate                            : 48.0 KHz
Bit depth                                : 16 bits
Compression mode                         : Lossy
Delay relative to video                  : 1mn 5s
Stream size                              : 325 MiB (21%)
Language                                 : Italian
Default                                  : Yes
Forced                                   : No
DURATION                                 : 01:41:28.555000000
NUMBER_OF_FRAMES                         : 182474
NUMBER_OF_BYTES                          : 326993408
_STATISTICS_WRITING_APP                  : mkvmerge v10.0.0 ('To Drown In You') 64bit
_STATISTICS_WRITING_DATE_UTC             : 2017-04-04 17:49:00
_STATISTICS_TAGS                         : BPS DURATION NUMBER_OF_FRAMES NUMBER_OF_BYTES

Audio #2
ID                                       : 3
Format                                   : AC-3
Format/Info                              : Audio Coding 3
Mode extension                           : CM (complete main)
Codec ID                                 : A_AC3
Duration                                 : 1h 41mn
Bit rate mode                            : Constant
Bit rate                                 : 448 Kbps
Channel(s)                               : 6 channels
Channel positions                        : Front: L C R, Side: L R, LFE
Sampling rate                            : 48.0 KHz
Bit depth                                : 16 bits
Compression mode                         : Lossy
Delay relative to video                  : 1mn 5s
Stream size                              : 325 MiB (21%)
Language                                 : English
Default                                  : No
Forced                                   : No
DURATION                                 : 01:41:28.086000000
NUMBER_OF_FRAMES                         : 570757
NUMBER_OF_BYTES                          : 1148933841
_STATISTICS_WRITING_APP                  : mkvmerge v10.0.0 ('To Drown In You') 64bit
_STATISTICS_WRITING_DATE_UTC             : 2017-04-04 17:49:00
_STATISTICS_TAGS                         : BPS DURATION NUMBER_OF_FRAMES NUMBER_OF_BYTES

Text #1
ID                                       : 4
Format                                   : ASS
Codec ID                                 : S_TEXT/ASS
Codec ID/Info                            : Advanced Sub Station Alpha
Compression mode                         : Lossless
Title                                    : Italiano forced
Language                                 : Italian
Default                                  : Yes
Forced                                   : Yes
DURATION                                 : 01:30:12.278000000
NUMBER_OF_FRAMES                         : 16
NUMBER_OF_BYTES                          : 588
_STATISTICS_WRITING_APP                  : mkvmerge v10.0.0 ('To Drown In You') 64bit
_STATISTICS_WRITING_DATE_UTC             : 2017-04-04 17:49:00
_STATISTICS_TAGS                         : BPS DURATION NUMBER_OF_FRAMES NUMBER_OF_BYTES

Text #2
ID                                       : 5
Format                                   : ASS
Codec ID                                 : S_TEXT/ASS
Codec ID/Info                            : Advanced Sub Station Alpha
Compression mode                         : Lossless
Title                                    : Italiano
Language                                 : Italian
Default                                  : No
Forced                                   : No
DURATION                                 : 01:40:42.504000000
NUMBER_OF_FRAMES                         : 839
NUMBER_OF_BYTES                          : 35145
_STATISTICS_WRITING_APP                  : mkvmerge v10.0.0 ('To Drown In You') 64bit
_STATISTICS_WRITING_DATE_UTC             : 2017-04-04 17:49:00
_STATISTICS_TAGS                         : BPS DURATION NUMBER_OF_FRAMES NUMBER_OF_BYTES

Text #3
ID                                       : 6
Format                                   : ASS
Codec ID                                 : S_TEXT/ASS
Codec ID/Info                            : Advanced Sub Station Alpha
Compression mode                         : Lossless
Title                                    : English
Language                                 : English
Default                                  : No
Forced                                   : No
DURATION                                 : 01:40:37.013000000
NUMBER_OF_FRAMES                         : 1116
NUMBER_OF_BYTES                          : 37301
_STATISTICS_WRITING_APP                  : mkvmerge v10.0.0 ('To Drown In You') 64bit
_STATISTICS_WRITING_DATE_UTC             : 2017-04-04 17:49:00
_STATISTICS_TAGS                         : BPS DURATION NUMBER_OF_FRAMES NUMBER_OF_BYTES

Menu
00:00:00.000                             : :Chapter 1
00:03:10.274                             : :Chapter 2
00:06:41.069                             : :Chapter 3
00:09:21.478                             : :Chapter 4
00:11:12.422                             : :Chapter 5
00:14:25.282                             : :Chapter 6
00:19:03.268                             : :Chapter 7
00:25:57.266                             : :Chapter 8
00:27:45.999                             : :Chapter 9
00:31:16.543                             : :Chapter 10
00:36:47.332                             : :Chapter 11
00:39:15.898                             : :Chapter 12
00:41:12.598                             : :Chapter 13
00:44:24.414                             : :Chapter 14
00:48:32.329                             : :Chapter 15
00:51:05.326                             : :Chapter 16
00:55:21.209                             : :Chapter 17
01:01:21.985                             : :Chapter 18
01:02:33.599                             : :Capitolo 19
01:07:45.492                             : :Capitolo 20
01:11:07.111                             : :Capitolo 21
01:13:51.526                             : :Capitolo 22
01:19:26.820                             : :Capitolo 23
01:25:40.068                             : :Capitolo 24
01:27:16.956                             : :Capitolo 25
01:28:12.213                             : :Capitolo 26
01:32:46.244                             : :Capitolo 27
01:34:52.095                             : :Capitolo 28
01:40:42.810                             : :Capitolo 29




[/spoiler]

[/center]

Info: Per scaricare devi usare un client come uTorrent o Transmission
AnnounceURL
udp://tracker.coppersurfer.tk:6969/announce
Hash d03a8390259ce57cb43d614cdfdf84ad8ddd6984
Peers seeds: 22 , leech: 4
Size 1.55 GB
Completato 703x
Aggiunto 26.06.17 - 09:06:22
Uploader   robbyrs
Votazione (Voti: 0)


Condividi questo bittorrent:


html/blog:


bbcode/forum:




Aggiungi Commento


counter