* Dettagli Torrent   globale  | Commenti (0) 


- Howard e il Destino del Mondo (1986).H264.Italian.English.Ac3.5.1.sub.ita.iCV-MIRCre -


Download via torrent:
Categoria bittorrent BDRip
Descrizione
Howard the Duck - Howard e il Destino del Mondo (1986).H264.Italian.English.Ac3.5.1.sub.ita.iCV-MIRCrew

[center]by www.icv-crew.org


NO FOUND ONLY ORIGINAL RELEASE



My release is always in double track audio italian and Original audio
for select it use VLC or dvd player home
not use wmp

Howard e il Destino del Mondo - Howard the Duck (1986)ng)







Titolo originale Howard the Duck
Paese di produzione USA
Anno 1986
Durata 111 min
Genere azione, fantascienza, commedia, avventura
Regia Willard Huyck
Soggetto fumetto della Marvel Comics
Sceneggiatura Willard Huyck, Gloria Katz
Produttore Gloria Katz
Produttore esecutivo George Lucas
Casa di produzione Universal Studios, Lucasfilm
Fotografia Richard H. Kline
Montaggio Michael Chandler, Sidney Wolinsky
Effetti speciali Bob MacDonald Jr.
Musiche John Barry
Scenografia Peter Jamison
Costumi Joe I. Tompkins
Trucco Gracie Atherton, Joy Zapata




   Ed Gale, Jordan Prentice, Tim Rose, Steve Sleap, Peter Baird, Mary Wells, Lisa Sturz: Howard
   Lea Thompson: Beverly Switzler
   Jeffrey Jones: Dr. Walter Jenning
   Tim Robbins: Phil Blumburtt
   Liz Sagal: Ronette
   Tommy Swerdlow: Ginger Moss
   Paul Guilfoyle: Ten. Welker
   Miles Chapin: Carter
   Virginia Capers: Cora Mae
   David Paymer: Larry
   William Hall: Hanson




Il papero alieno Howard viene trasportato a Cleveland nel corso di un esperimento volto a studiare le specie aliene mediante l'impiego di un apparecchio noto come spettroscopio laser. Nel girovagare disorientato per le strade della città, Howard incontra Beverly Switzler, una giovane e deliziosa cantante rock che, infastidita da ragazzi invadenti, viene salvata dal papero. Colta da curiosità e tenerezza, la ragazza tenta di aiutarlo a tornare a casa rivolgendosi ad uno scienziato suo amico, Phil Blumburtt.................



A sarcastic humanoid duck is pulled from his homeworld to Earth where he must stop an alien invader.













[spoiler]
General
Unique ID                                : 214731980174150152610613909903402498373 (0xA18BE004294A1E169D8F7FAC05AE7945)
Complete name                            : Howard e il Destino del Mondo (1986).H264.ita.eng.sub.ita.iCV-MIRCrew.mkv
Format                                   : Matroska
Format version                           : Version 2
File size                                : 1.34 GiB
Duration                                 : 1h 45mn
Overall bit rate                         : 1 812 Kbps
Movie name                               : Howard e il Destino del Mondo (1986)
Encoded date                             : UTC 2017-04-22 16:52:16
Writing application                      : DVDFab 9.1.5.7
Writing library                          : libebml v0.7.8 + libmatroska v0.8.1

Video
ID                                       : 1
Format                                   : AVC
Format/Info                              : Advanced Video Codec
Format profile                           : [email protected]
Format settings, CABAC                   : Yes
Format settings, ReFrames                : 2 frames
Format settings, GOP                     : M=3, N=24
Codec ID                                 : V_MPEG4/ISO/AVC
Duration                                 : 1h 45mn
Bit rate                                 : 1 135 Kbps
Width                                    : 688 pixels
Height                                   : 384 pixels
Display aspect ratio                     : 16:9
Frame rate                               : 25.000 fps
Color space                              : YUV
Chroma subsampling                       : 4:2:0
Bit depth                                : 8 bits
Scan type                                : Progressive
Bits/(Pixel*Frame)                       : 0.172
Stream size                              : 861 MiB (63%)
Writing library                          : x264 core
Default                                  : Yes
Forced                                   : No
Color primaries                          : BT.601-6 525, BT.1358 525, BT.1700 NTSC, SMPTE 170M
Transfer characteristics                 : BT.709-5, BT.1361
Matrix coefficients                      : BT.601-6 525, BT.1358 525, BT.1700 NTSC, SMPTE 170M

Audio #1
ID                                       : 2
Format                                   : AC-3
Format/Info                              : Audio Coding 3
Mode extension                           : CM (complete main)
Codec ID                                 : A_AC3
Duration                                 : 1h 45mn
Bit rate mode                            : Constant
Bit rate                                 : 448 Kbps
Channel(s)                               : 6 channels
Channel positions                        : Front: L C R, Side: L R, LFE
Sampling rate                            : 48.0 KHz
Bit depth                                : 16 bits
Compression mode                         : Lossy
Stream size                              : 340 MiB (25%)
Language                                 : Italian
Default                                  : Yes
Forced                                   : No

Audio #2
ID                                       : 3
Format                                   : AC-3
Format/Info                              : Audio Coding 3
Mode extension                           : CM (complete main)
Codec ID                                 : A_AC3
Duration                                 : 1h 45mn
Bit rate mode                            : Constant
Bit rate                                 : 192 Kbps
Channel(s)                               : 2 channels
Channel positions                        : Front: L R
Sampling rate                            : 48.0 KHz
Bit depth                                : 16 bits
Compression mode                         : Lossy
Stream size                              : 146 MiB (11%)
Language                                 : English
Default                                  : No
Forced                                   : No

Text
ID                                       : 4
Format                                   : VobSub
Codec ID                                 : S_VOBSUB
Codec ID/Info                            : The same subtitle format used on DVDs
Language                                 : Italian
Default                                  : Yes
Forced                                   : No

Menu
00:00:00.000                             : en01)00:00:00:000
00:13:26.000                             : en02)00:13:26:000
00:19:26.720                             : en03)00:19:26:720
00:26:27.520                             : en04)00:26:27:520
00:30:53.320                             : en05)00:30:53:320
00:46:28.880                             : en06)00:46:28:880
00:53:22.720                             : en07)00:53:22:720
00:56:41.440                             : en000:56:41:440
01:10:07.600                             : en09)01:10:07:600
01:23:10.720                             : en10)01:23:10:720
01:33:23.240                             : en11)01:33:23:240
01:38:31.760                             : en12)01:38:31:760
01:45:59.360                             : en13)01:45:59:360



[/spoiler]

[/center]

Info: Per scaricare devi usare un client come uTorrent o Transmission
AnnounceURL
udp://tracker.coppersurfer.tk:6969/announce
Hash 475e2da43f3f4d34d5bf3dce600d6fc0b1d2f450
Peers seeds: 43 , leech: 3
Size 1.34 GB
Completato 1161x
Aggiunto 25.06.17 - 09:06:43
Uploader   robbyrs
Votazione (Voti: 2)


Condividi questo bittorrent:


html/blog:


bbcode/forum:




Aggiungi Commento


counter