* Dettagli Torrent   globale  | Commenti (0) 


- Lego Batman Il film (2017).H264.Italian.English.Ac3.5.1.sub.ita.iCV-MIRCrew -


Download via torrent:
Categoria bittorrent BDRip
Descrizione
The Lego Batman Movie - Lego Batman Il film (2017).H264.Italian.English.Ac3.5.1.sub.ita.iCV-MIRCrew

by www.icv-crew.org


NO FOUND ONLY ORIGINAL RELEASE



My release is always in double track audio italian and Original audio
for select it use VLC or dvd player home
not use wmp

Lego Batman Il film - The Lego Batman Movie (2017)

PRESENTI ANCHE i SOTTOTITOLI

ESTERNI IN SRT (ita)








Titolo originale The Lego Batman Movie
Lingua originale Inglese
Paese di produzione Stati Uniti d'America
Anno 2017
Durata 104 min
Genere animazione, azione, commedia
Regia Chris McKay
Soggetto basato su Batman, creato da Bob Kane & Bill Finger
Sceneggiatura Seth Grahame-Smith
Produttore Dan Lin, Roy Lee, Phil Lord e Christopher Miller
Distribuzione (Italia) Warner Bros. Pictures
Montaggio David Burrows
Musiche Lorne Balfe



Doppiatori originali

   Will Arnett: Batman/Bruce Wayne
   Zach Galifianakis: Joker
   Michael Cera: Dick Grayson/Robin
   Rosario Dawson: Barbara Gordon/Batgirl
   Ralph Fiennes: Alfred Pennyworth
   Mariah Carey: Sindaco McCaskill
   Jenny Slate: Dott.ssa Harleen Quinzel/Harley Quinn
   Héctor Elizondo: Comm. James Gordon
   Channing Tatum: Clark Kent/Superman
   Lauren White: Comandante O'Hara

Doppiatori italiani

   Claudio Santamaria: Batman/Bruce Wayne
   Marco Guadagno: Joker
   Alessandro Sperduti: Dick Grayson/Robin
   Geppi Cucciari: Barbara Gordon/Batgirl
   Roberto Pedicini: Alfred Pennyworth
   Marina Tagliaferri: Sindaco McCaskill
   Domitilla D'Amico: Dott.essa Harleen Quinzel/Harley Quinn
   Gerolamo Alchieri: Comm. James Gordon
   Gianfranco Miranda: Clark Kent/Superman
   Laura Lenghi: Comandante O'Hara




Durante una missione volta a impedire a Joker di distruggere Gotham City, Batman ferisce i sentimenti del suo arcinemico dicendogli che non è importante nella sua vita quanto Superman e Bane. Il giorno seguente Batman partecipa al gala invernale della città per celebrare il pensionamento del commissario Gordon.............



A cooler-than-ever Bruce Wayne must deal with the usual suspects as they plan to rule Gotham City, while discovering that he has accidentally adopted a teenage orphan who wishes to become his sidekick.  















[spoiler]
General
Unique ID                                : 151594049938069756584598365801427409036 (0x720BF3B75D3ECEED87D87D62B172988C)
Complete name                            : Lego Batman Il film (2017).ita.eng.sub.ita.iCV-MIRCrew.mkv
Format                                   : Matroska
Format version                           : Version 2
File size                                : 1.52 GiB
Duration                                 : 1h 44mn
Overall bit rate                         : 2 079 Kbps
Encoded date                             : UTC 2017-06-15T16:19:44Z
Writing application                      : HandBrake 0.10.5 2016021100
Writing library                          : Lavf55.12.0

Video
ID                                       : 1
Format                                   : AVC
Format/Info                              : Advanced Video Codec
Format profile                           : [email protected]
Format settings, CABAC                   : Yes
Format settings, ReFrames                : 4 frames
Codec ID                                 : V_MPEG4/ISO/AVC
Duration                                 : 1h 44mn
Bit rate                                 : 1 206 Kbps
Nominal bit rate                         : 1 290 Kbps
Width                                    : 720 pixels
Height                                   : 300 pixels
Display aspect ratio                     : 2.40:1
Frame rate mode                          : Variable
Frame rate                               : 23.976 fps
Color space                              : YUV
Chroma subsampling                       : 4:2:0
Bit depth                                : 8 bits
Scan type                                : Progressive
Bits/(Pixel*Frame)                       : 0.233
Stream size                              : 901 MiB (58%)
Writing library                          : x264 core 142 r2479 dd79a61
Encoding settings                        : cabac=1 / ref=1 / deblock=1:1:1 / analyse=0x1:0x111 / me=hex / subme=2 / psy=1 / psy_rd=0.40:0.00 / mixed_ref=0 / me_range=16 / chroma_me=1 / trellis=0 / 8x8dct=0 / cqm=0 / deadzone=21,11 / fast_pskip=1 / chroma_qp_offset=0 / threads=12 / lookahead_threads=2 / sliced_threads=0 / nr=0 / decimate=1 / interlaced=0 / bluray_compat=0 / constrained_intra=0 / bframes=5 / b_pyramid=2 / b_adapt=1 / b_bias=0 / direct=1 / weightb=1 / open_gop=0 / weightp=1 / keyint=240 / keyint_min=24 / scenecut=40 / intra_refresh=0 / rc_lookahead=10 / rc=abr / mbtree=1 / bitrate=1290 / ratetol=1.0 / qcomp=0.60 / qpmin=0 / qpmax=69 / qpstep=4 / vbv_maxrate=20000 / vbv_bufsize=25000 / nal_hrd=none / filler=0 / ip_ratio=1.40 / aq=1:0.60
Default                                  : Yes
Forced                                   : No
Color primaries                          : BT.709-5, BT.1361, IEC 61966-2-4, SMPTE RP177
Transfer characteristics                 : BT.709-5, BT.1361
Matrix coefficients                      : BT.709-5, BT.1361, IEC 61966-2-4 709, SMPTE RP177

Audio #1
ID                                       : 2
Format                                   : AC-3
Format/Info                              : Audio Coding 3
Mode extension                           : CM (complete main)
Codec ID                                 : A_AC3
Duration                                 : 1h 44mn
Bit rate mode                            : Constant
Bit rate                                 : 448 Kbps
Channel(s)                               : 6 channels
Channel positions                        : Front: L C R, Side: L R, LFE
Sampling rate                            : 48.0 KHz
Bit depth                                : 16 bits
Compression mode                         : Lossy
Delay relative to video                  : 1mn 5s
Stream size                              : 335 MiB (22%)
Title                                    : Surround
Language                                 : Italian
Default                                  : Yes
Forced                                   : No

Audio #2
ID                                       : 3
Format                                   : AC-3
Format/Info                              : Audio Coding 3
Mode extension                           : CM (complete main)
Codec ID                                 : A_AC3
Duration                                 : 1h 44mn
Bit rate mode                            : Constant
Bit rate                                 : 384 Kbps
Channel(s)                               : 6 channels
Channel positions                        : Front: L C R, Side: L R, LFE
Sampling rate                            : 48.0 KHz
Bit depth                                : 16 bits
Compression mode                         : Lossy
Delay relative to video                  : 1mn 5s
Stream size                              : 287 MiB (18%)
Title                                    : Surround
Language                                 : English
Default                                  : No
Forced                                   : No

Text #1
ID                                       : 4
Format                                   : ASS
Codec ID                                 : S_TEXT/ASS
Codec ID/Info                            : Advanced Sub Station Alpha
Compression mode                         : Lossless
Language                                 : Italian
Default                                  : No
Forced                                   : No

Text #2
ID                                       : 5
Format                                   : ASS
Codec ID                                 : S_TEXT/ASS
Codec ID/Info                            : Advanced Sub Station Alpha
Compression mode                         : Lossless
Language                                 : Italian
Default                                  : No
Forced                                   : No

Menu
00:00:00.000                             : :00:00:00.000
00:07:05.425                             : :00:07:05.342
00:14:28.284                             : :00:14:28.201
00:20:13.962                             : :00:20:13.838
00:29:27.182                             : :00:29:27.099
00:39:02.673                             : :00:39:02.590
00:50:56.887                             : :00:50:56.804
00:59:52.881                             : :00:59:52.756
01:08:53.212                             : :01:08:53.129
01:16:20.075                             : :01:16:19.950
01:25:27.831                             : :01:25:27.706
01:35:23.384                             : :01:35:23.259
01:42:10.332                             : :01:42:10:200

[/spoiler]

[/center]

Info: Per scaricare devi usare un client come uTorrent o Transmission
AnnounceURL
udp://tracker.coppersurfer.tk:6969/announce
Hash 489f1a1fb2c97422496f4537778b8c1dcd373f3a
Peers seeds: 95 , leech: 19
Size 1.52 GB
Completato 2561x
Aggiunto 25.06.17 - 07:06:49
Uploader   robbyrs
Votazione (Voti: 0)


Condividi questo bittorrent:


html/blog:


bbcode/forum:




Aggiungi Commento


counter