* Dettagli Torrent   globale  | Commenti (2) 


- 1997: Fuga da New York (1981).H264.Italian.English.Ac3.sub.ita.eng.iCV-MIRCrew -


Download via torrent:
Categoria bittorrent BDRip
Descrizione
Escape from New York - 1997: Fuga da New York (1981).H264.Italian.English.Ac3.sub.ita.eng.iCV-MIRCrew


[center]by www.icv-crew.org


NO FOUND ONLY ORIGINAL RELEASE



My release is always in double track audio italian and Original audio
for select it use VLC or dvd player home
not use wmp

1997: Fuga da New York - Escape from New York (1981)







Titolo originale Escape from New York
Lingua originale inglese
Paese di produzione Regno Unito, USA
Anno 1981
Durata 99 min
Rapporto 2.35 : 1
Genere azione, fantascienza
Regia John Carpenter
Soggetto John Carpenter, Nick Castle
Sceneggiatura John Carpenter, Nick Castle
Produttore Debra Hill, Larry J. Franco
Casa di produzione AVCO Embassy Pictures, City Film, Goldcrest Films International, International Film Investors
Distribuzione (Italia) Medusa Film
Fotografia Dean Cundey
Montaggio Todd Ramsay
Effetti speciali Roy Arbogast
Musiche John Carpenter, Alan Howarth
Scenografia Joe Alves
Costumi Stephen Loomis
Trucco Ken Chase




   Kurt Russell: Jena Plissken
   Lee Van Cleef: commissario Bob Hauk
   Ernest Borgnine: tassista
   Donald Pleasence: presidente degli Stati Uniti
   Isaac Hayes: il Duca
   Frank Doubleday: Romero
   Season Hubley: ragazza al Chock Full O'Nuts
   Harry Dean Stanton: Harold 'Mente' Helman
   Adrienne Barbeau: Maggie
   Tom Atkins: Rehme
   Charles Cyphers: segretario di stato
   Nancy Stephens: capo dei terroristi




1997: Jena Plissken, ex eroe di guerra pluridecorato che si è dato al crimine, condannato alla pena capitale, sta per fare ingresso nel carcere di massima sicurezza di New York. Contemporaneamente l'aereo presidenziale viene dirottato da alcuni terroristi suicidi che intendono far schiantare il velivolo contro uno dei grattacieli di New York................



In 1997, when the U.S. president crashes into Manhattan, now a giant maximum security prison, a convicted bank robber is sent in to rescue him.















[spoiler]
General
Unique ID                                : 262978083068038080317909001063558344112 (0xC5D7BC8A98F0BC17C8F62AECD4ACEDB0)
Complete name                            : Fuga da New York - Escape from New York (1981).h264.ita.eng.sub.ita.eng.iCV-MIRCrew.mkv
Format                                   : Matroska
Format version                           : Version 2
File size                                : 1.18 GiB
Duration                                 : 1h 39mn
Overall bit rate                         : 1 695 Kbps
Encoded date                             : UTC 2017-06-09T15:19:35Z
Writing application                      : HandBrake 0.10.5 2016021100
Writing library                          : Lavf55.12.0

Video
ID                                       : 1
Format                                   : AVC
Format/Info                              : Advanced Video Codec
Format profile                           : [email protected]
Format settings, CABAC                   : Yes
Format settings, ReFrames                : 4 frames
Codec ID                                 : V_MPEG4/ISO/AVC
Duration                                 : 1h 39mn
Bit rate                                 : 1 300 Kbps
Width                                    : 720 pixels
Height                                   : 304 pixels
Display aspect ratio                     : 2.35:1
Frame rate mode                          : Variable
Frame rate                               : 23.976 fps
Color space                              : YUV
Chroma subsampling                       : 4:2:0
Bit depth                                : 8 bits
Scan type                                : Progressive
Bits/(Pixel*Frame)                       : 0.248
Stream size                              : 909 MiB (75%)
Writing library                          : x264 core 142 r2479 dd79a61
Encoding settings                        : cabac=1 / ref=1 / deblock=1:-1:-1 / analyse=0x1:0x111 / me=hex / subme=2 / psy=1 / psy_rd=1.00:0.15 / mixed_ref=0 / me_range=16 / chroma_me=1 / trellis=0 / 8x8dct=0 / cqm=0 / deadzone=21,11 / fast_pskip=1 / chroma_qp_offset=0 / threads=12 / lookahead_threads=2 / sliced_threads=0 / nr=0 / decimate=1 / interlaced=0 / bluray_compat=0 / constrained_intra=0 / bframes=3 / b_pyramid=2 / b_adapt=1 / b_bias=0 / direct=1 / weightb=1 / open_gop=0 / weightp=1 / keyint=240 / keyint_min=24 / scenecut=40 / intra_refresh=0 / rc_lookahead=10 / rc=abr / mbtree=1 / bitrate=1300 / ratetol=1.0 / qcomp=0.60 / qpmin=0 / qpmax=69 / qpstep=4 / vbv_maxrate=20000 / vbv_bufsize=25000 / nal_hrd=none / filler=0 / ip_ratio=1.40 / aq=1:1.00
Default                                  : Yes
Forced                                   : No
Color primaries                          : BT.709-5, BT.1361, IEC 61966-2-4, SMPTE RP177
Transfer characteristics                 : BT.709-5, BT.1361
Matrix coefficients                      : BT.709-5, BT.1361, IEC 61966-2-4 709, SMPTE RP177

Audio #1
ID                                       : 2
Format                                   : AC-3
Format/Info                              : Audio Coding 3
Mode extension                           : CM (complete main)
Codec ID                                 : A_AC3
Duration                                 : 1h 39mn
Bit rate mode                            : Constant
Bit rate                                 : 192 Kbps
Channel(s)                               : 2 channels
Channel positions                        : Front: L R
Sampling rate                            : 44.1 KHz
Bit depth                                : 16 bits
Compression mode                         : Lossy
Delay relative to video                  : 1mn 5s
Stream size                              : 137 MiB (11%)
Title                                    : Stereo
Language                                 : Italian
Default                                  : Yes
Forced                                   : No

Audio #2
ID                                       : 3
Format                                   : AC-3
Format/Info                              : Audio Coding 3
Mode extension                           : CM (complete main)
Codec ID                                 : A_AC3
Duration                                 : 1h 39mn
Bit rate mode                            : Constant
Bit rate                                 : 192 Kbps
Channel(s)                               : 2 channels
Channel positions                        : Front: L R
Sampling rate                            : 48.0 KHz
Bit depth                                : 16 bits
Compression mode                         : Lossy
Delay relative to video                  : 1mn 5s
Stream size                              : 137 MiB (11%)
Title                                    : Stereo
Language                                 : English
Default                                  : No
Forced                                   : No

Text #1
ID                                       : 4
Format                                   : ASS
Codec ID                                 : S_TEXT/ASS
Codec ID/Info                            : Advanced Sub Station Alpha
Compression mode                         : Lossless
Language                                 : Italian
Default                                  : No
Forced                                   : No

Text #2
ID                                       : 5
Format                                   : VobSub
Codec ID                                 : S_VOBSUB
Codec ID/Info                            : The same subtitle format used on DVDs
Language                                 : English
Default                                  : No
Forced                                   : No


[/spoiler]

[/center]

Info: Per scaricare devi usare un client come uTorrent o Transmission
AnnounceURL
udp://tracker.coppersurfer.tk:6969/announce
Hash b6fa99c0da34d871d0f05f23c2d39de52352fe7f
Peers seeds: 14 , leech: 1
Size 1.18 GB
Completato 523x
Aggiunto 25.06.17 - 06:06:08
Uploader   robbyrs
Votazione (Voti: 1)


Condividi questo bittorrent:


html/blog:


bbcode/forum:




Aggiungi Commento
Ultimi commenti
  
Non parte a scaricare
25/06 12.48
avatar     
W il DUCA di NewYork!!!
25/06 09.01
Tutti commenti (2)


counter