* Dettagli Torrent   globale  | Commenti (2) 


- Logan - The Wolverine (2017).H264.Italian.English.Ac3.5.1.sub.ita.eng.iCV-MIRCrew -


Download via torrent:
Categoria bittorrent BDRip
Descrizione
Logan - The Wolverine  (2017).H264.Italian.English.Ac3.5.1.sub.ita.eng.iCV-MIRCrew


[center]by www.icv-crew.org


NO FOUND ONLY ORIGINAL RELEASE



My release is always in double track audio italian and Original audio
for select it use VLC or dvd player home
not use wmp

Logan - The Wolverine  (2017)

PRESENTI ANCHE i SOTTOTITOLI

ESTERNI IN SRT (ita/eng)







Titolo originale Logan
Lingua originale inglese, spagnolo
Paese di produzione Stati Uniti d'America
Anno 2017
Durata 137 min
Rapporto 2.35:1
Genere azione, avventura, thriller, drammatico, fantascienza
Regia James Mangold
Soggetto Roy Thomas, Len Wein, John Romita Sr. (personaggio)
James Mangold (storia)
Sceneggiatura Scott Frank, James Mangold e Michael Green
Produttore Lauren Shuler Donner, Simon Kinberg, Hutch Parker
Produttore esecutivo James Mangold, Stan Lee, Joseph M. Carracciolo, Josh McLaglen, Kurt Williams
Casa di produzione Marvel Entertainment, TSG Entertainment, Hutch Parker Entertainment The Donners' Company, Kinberg Genre
Distribuzione (Italia) 20th Century Fox
Fotografia John Mathieson
Montaggio Michael McCusker, Dirk Westervelt
Musiche Marco Beltrami
Scenografia François Audouy




   Hugh Jackman: Logan / Wolverine; X-24
   Patrick Stewart: Charles Xavier / Professor X
   Dafne Keen: Laura Kinney / X-23
   Richard E. Grant: Dr. Zander Rice
   Boyd Holbrook: Donald Pierce
   Stephen Merchant: Calibano
   Elizabeth Rodriguez: Gabriela
   Eriq La Salle: Will Munson
   Elise Neal: Kathryn Munson




Nell'anno 2029, i mutanti sono sull'orlo dell'estinzione a causa del fatto che da 25 anni non nasce nessun bambino mutante. Logan, che è notevolmente invecchiato da quando il suo fattore rigenerante si è indebolito per via dell'avvelenamento da adamantio, trascorre le sue giornate lavorando come autista in Texas, risparmiando denaro per comprare uno yacht e per acquistare medicine sottobanco......................



In the near future, a weary Logan cares for an ailing Professor X somewhere on the Mexican border. However, Logan's attempts to hide from the world and his legacy are upended when a young mutant arrives, pursued by dark forces.


















[spoiler]
General
Unique ID                                : 89711248897755533931381966189178882610 (0x437DC210394E8D26AE78970AAD038A32)
Complete name                            : Logan (2017).H264.ita.eng.sub.ita.eng.iCV-MIRCrew.mkv
Format                                   : Matroska
Format version                           : Version 2
File size                                : 2.10 GiB
Duration                                 : 2h 17mn
Overall bit rate                         : 2 192 Kbps
Movie name                               : www.icv-crew.org
Encoded date                             : UTC 2017-06-19 17:56:07
Writing application                      : Lavf54.63.100
Writing library                          : Lavf54.63.100
COPYRIGHT                                : robbyrs

Video
ID                                       : 1
Format                                   : AVC
Format/Info                              : Advanced Video Codec
Format profile                           : [email protected]
Format settings, CABAC                   : Yes
Format settings, ReFrames                : 2 frames
Codec ID                                 : V_MPEG4/ISO/AVC
Duration                                 : 2h 17mn
Bit rate                                 : 1 290 Kbps
Width                                    : 720 pixels
Height                                   : 304 pixels
Display aspect ratio                     : 2.40:1
Frame rate mode                          : Variable
Frame rate                               : 23.976 fps
Color space                              : YUV
Chroma subsampling                       : 4:2:0
Bit depth                                : 8 bits
Scan type                                : Progressive
Bits/(Pixel*Frame)                       : 0.246
Stream size                              : 1.20 GiB (57%)
Writing library                          : x264 core 130 r2273
Encoding settings                        : cabac=1 / ref=2 / deblock=1:0:0 / analyse=0x1:0x131 / me=hex / subme=7 / psy=1 / psy_rd=1.00:0.00 / mixed_ref=0 / me_range=16 / chroma_me=1 / trellis=1 / 8x8dct=0 / cqm=0 / deadzone=21,11 / fast_pskip=1 / chroma_qp_offset=-2 / threads=12 / lookahead_threads=2 / sliced_threads=0 / nr=0 / decimate=1 / interlaced=0 / bluray_compat=0 / constrained_intra=0 / bframes=3 / b_pyramid=0 / b_adapt=1 / b_bias=0 / direct=3 / weightb=1 / open_gop=0 / weightp=2 / keyint=230 / keyint_min=23 / scenecut=40 / intra_refresh=0 / rc_lookahead=40 / rc=abr / mbtree=1 / bitrate=1290 / ratetol=1.0 / qcomp=0.60 / qpmin=10 / qpmax=69 / qpstep=4 / vbv_maxrate=24000 / vbv_bufsize=24000 / nal_hrd=none / ip_ratio=1.40 / aq=1:1.00
Language                                 : Italian
Default                                  : Yes
Forced                                   : Yes
DURATION                                 : 02:17:23.235000000
NUMBER_OF_FRAMES                         : 197640
NUMBER_OF_BYTES                          : 9747503844
_STATISTICS_WRITING_APP                  : mkvmerge v8.3.0 ('Over the Horizon') 64bit
_STATISTICS_WRITING_DATE_UTC             : 2017-06-16 20:09:04
_STATISTICS_TAGS                         : BPS DURATION NUMBER_OF_FRAMES NUMBER_OF_BYTES

Audio #1
ID                                       : 2
Format                                   : AC-3
Format/Info                              : Audio Coding 3
Mode extension                           : CM (complete main)
Codec ID                                 : A_AC3
Duration                                 : 2h 17mn
Bit rate mode                            : Constant
Bit rate                                 : 448 Kbps
Channel(s)                               : 6 channels
Channel positions                        : Front: L C R, Side: L R, LFE
Sampling rate                            : 48.0 KHz
Bit depth                                : 16 bits
Compression mode                         : Lossy
Delay relative to video                  : 1mn 5s
Stream size                              : 440 MiB (20%)
Language                                 : Italian
Default                                  : Yes
Forced                                   : Yes
DURATION                                 : 02:17:23.286000000
NUMBER_OF_FRAMES                         : 772808
NUMBER_OF_BYTES                          : 791355392
_STATISTICS_WRITING_APP                  : mkvmerge v8.3.0 ('Over the Horizon') 64bit
_STATISTICS_WRITING_DATE_UTC             : 2017-06-16 20:09:04
_STATISTICS_TAGS                         : BPS DURATION NUMBER_OF_FRAMES NUMBER_OF_BYTES

Audio #2
ID                                       : 3
Format                                   : AC-3
Format/Info                              : Audio Coding 3
Mode extension                           : CM (complete main)
Codec ID                                 : A_AC3
Duration                                 : 2h 17mn
Bit rate mode                            : Constant
Bit rate                                 : 448 Kbps
Channel(s)                               : 6 channels
Channel positions                        : Front: L C R, Side: L R, LFE
Sampling rate                            : 48.0 KHz
Bit depth                                : 16 bits
Compression mode                         : Lossy
Delay relative to video                  : 1mn 5s
Stream size                              : 440 MiB (20%)
Language                                 : English
Default                                  : No
Forced                                   : No
DURATION                                 : 02:17:23.296000000
NUMBER_OF_FRAMES                         : 257603
NUMBER_OF_BYTES                          : 659463680
_STATISTICS_WRITING_APP                  : mkvmerge v8.3.0 ('Over the Horizon') 64bit
_STATISTICS_WRITING_DATE_UTC             : 2017-06-16 20:09:04
_STATISTICS_TAGS                         : BPS DURATION NUMBER_OF_FRAMES NUMBER_OF_BYTES

Text #1
ID                                       : 4
Format                                   : ASS
Codec ID                                 : S_TEXT/ASS
Codec ID/Info                            : Advanced Sub Station Alpha
Compression mode                         : Lossless
Title                                    : SUB ITA Forced
Language                                 : Italian
Default                                  : Yes
Forced                                   : Yes
DURATION                                 : 02:09:12.453000000
NUMBER_OF_FRAMES                         : 14
NUMBER_OF_BYTES                          : 325
_STATISTICS_WRITING_APP                  : mkvmerge v8.3.0 ('Over the Horizon') 64bit
_STATISTICS_WRITING_DATE_UTC             : 2017-06-16 20:09:04
_STATISTICS_TAGS                         : BPS DURATION NUMBER_OF_FRAMES NUMBER_OF_BYTES

Text #2
ID                                       : 5
Format                                   : ASS
Codec ID                                 : S_TEXT/ASS
Codec ID/Info                            : Advanced Sub Station Alpha
Compression mode                         : Lossless
Title                                    : SUB ITA
Language                                 : Italian
Default                                  : No
Forced                                   : No
DURATION                                 : 02:16:15.709000000
NUMBER_OF_FRAMES                         : 1381
NUMBER_OF_BYTES                          : 37772
_STATISTICS_WRITING_APP                  : mkvmerge v8.3.0 ('Over the Horizon') 64bit
_STATISTICS_WRITING_DATE_UTC             : 2017-06-16 20:09:04
_STATISTICS_TAGS                         : BPS DURATION NUMBER_OF_FRAMES NUMBER_OF_BYTES

Text #3
ID                                       : 6
Format                                   : ASS
Codec ID                                 : S_TEXT/ASS
Codec ID/Info                            : Advanced Sub Station Alpha
Compression mode                         : Lossless
Title                                    : SUB ENG
Language                                 : English
Default                                  : No
Forced                                   : No
DURATION                                 : 02:13:51.803000000
NUMBER_OF_FRAMES                         : 1447
NUMBER_OF_BYTES                          : 40181
_STATISTICS_WRITING_APP                  : mkvmerge v8.3.0 ('Over the Horizon') 64bit
_STATISTICS_WRITING_DATE_UTC             : 2017-06-16 20:09:04
_STATISTICS_TAGS                         : BPS DURATION NUMBER_OF_FRAMES NUMBER_OF_BYTES

Menu
00:00:00.000                             : :CAPITOLO 1
00:05:35.126                             : :CAPITOLO 2
00:09:18.558                             : :CAPITOLO 3
00:11:41.159                             : :CAPITOLO 4
00:16:23.232                             : :CAPITOLO 5
00:20:11.669                             : :CAPITOLO 6
00:24:26.715                             : :CAPITOLO 7
00:26:11.904                             : :CAPITOLO 8
00:30:13.311                             : :CAPITOLO 9
00:31:59.126                             : :CAPITOLO 10
00:34:56.886                             : :CAPITOLO 11
00:39:53.433                             : :CAPITOLO 12
00:42:55.573                             : :CAPITOLO 13
00:45:03.826                             : :CAPITOLO 14
00:47:53.412                             : :CAPITOLO 15
00:49:39.560                             : :CAPITOLO 16
00:52:14.423                             : :CAPITOLO 17
00:54:30.517                             : :CAPITOLO 18
00:57:44.211                             : :CAPITOLO 19
01:00:10.398                             : :CAPITOLO 20
01:03:53.830                             : :CAPITOLO 21
01:06:55.511                             : :CAPITOLO 22
01:09:54.774                             : :CAPITOLO 23
01:13:15.891                             : :CAPITOLO 24
01:18:43.594                             : :CAPITOLO 25
01:21:50.906                             : :CAPITOLO 26
01:25:52.189                             : :CAPITOLO 27
01:28:38.813                             : :CAPITOLO 28
01:32:41.431                             : :CAPITOLO 29
01:35:29.724                             : :CAPITOLO 30
01:41:03.432                             : :CAPITOLO 31
01:43:39.880                             : :CAPITOLO 32
01:49:38.989                             : :CAPITOLO 33
01:54:20.562                             : :CAPITOLO 34
01:57:00.430                             : :CAPITOLO 35
01:59:20.403                             : :CAPITOLO 36
02:01:14.434                             : :CAPITOLO 37
02:05:09.627                             : :CAPITOLO 38
02:06:40.551                             : :CAPITOLO 39
02:11:07.860                             : :CAPITOLO 40


[/spoiler]

[/center]

Info: Per scaricare devi usare un client come uTorrent o Transmission
AnnounceURL
udp://tracker.coppersurfer.tk:6969/announce
Hash 9e0ae5063edcab9cacc857429fa1e9e28eb1c83b
Peers seeds: 147 , leech: 18
Size 2.10 GB
Completato 4014x
Aggiunto 21.06.17 - 07:06:00
Uploader   robbyrs
Votazione (Voti: 2)


Condividi questo bittorrent:


html/blog:


bbcode/forum:




Aggiungi Commento
Ultimi commenti
 ergatto55ergatto55   
che dire audio 10 video 9
23/06 07.27
 jackal98jackal98   
grazie
23/06 01.02
Tutti commenti (2)


counter