* Dettagli Torrent   globale  | Commenti (1) 


- Jackie (2016).H264.Italian.English.Ac3.5.1.sub.ita.eng.iCV-MIRCrew -


Download via torrent:
Categoria bittorrent BDRip
Descrizione
Jackie (2016).H264.Italian.English.Ac3.5.1.sub.ita.eng.iCV-MIRCrew

[center]by www.icv-crew.org


NO FOUND ONLY ORIGINAL RELEASE



My release is always in double track audio italian and Original audio
for select it use VLC or dvd player home
not use wmp

Jackie (2016)







Riconoscimenti

   2017 - Premio Oscar
       Candidatura alla Miglior attrice protagonista a Natalie Portman
       Candidatura per la Miglior colonna sonora a Mica Levi
       Candidatura per i Migliori costumi a Madeline Fontaine
   2017 - Golden Globe
       Candidatura alla Miglior attrice in un film drammatico a Natalie Portman
   2017 - British Academy Film Awards
       Migliori costumi a Madeline Fontaine
       Candidatura per la Miglior attrice protagonista a Natalie Portman
       Candidatura per la Miglior colonna sonora a Mica Levi
ecc...................

Titolo originale Jackie
Paese di produzione Stati Uniti d'America, Cile, Francia
Anno 2016
Durata 95 min
Rapporto 1.66 : 1
Genere drammatico, biografico
Regia Pablo Larraín
Sceneggiatura Noah Oppenheim
Produttore Darren Aronofsky, Juan de Dios Larraín, Mickey Liddell, Scott Franklin, Ari Handel
Produttore esecutivo Pete Shilaimon, Jennifer Monroe, Jayne Hong, Wei Han, Lin Qi, Josh Stern
Casa di produzione Jackie Productions Limited, LD Entertainment, Protozoa, Fabula, Wild Bunch, Why Not Productions
Distribuzione (Italia) Lucky Red
Fotografia Stéphane Fontaine
Montaggio Sebastian Sepulveda
Musiche Mica Levi
Scenografia Jean Rabasse




   Natalie Portman: Jacqueline Kennedy
   Peter Sarsgaard: Robert Kennedy
   Greta Gerwig: Nancy Tuckerman
   Billy Crudup: Theodore H. White
   John Hurt: padre Richard McSorley
   Max Casella: Jack Valenti
   Beth Grant: Lady Bird Johnson
   John Carroll Lynch: Lyndon B. Johnson
   Sunnie Pelant: Caroline Kennedy
   Caspar Phillipson: John Fitzgerald Kennedy




Il film segue le vicende di Jacqueline Bouvier ai tempi in cui era stata first lady alla Casa Bianca e la sua vita in seguito all'assassinio di suo marito, il presidente John F. Kennedy, avvenuto nel 1963 a Dallas in Texas..............



Following the assassination of President John F. Kennedy, First Lady Jacqueline Kennedy fights through grief and trauma to regain her faith, console her children, and define her husband's historic legacy.














[spoiler]
General
Unique ID                                : 326090909717802780389529069186951505745 (0xF552D32396DA26162C973B306A4D6751)
Complete name                            : Jackie (2016).H264.ita.eng.sub.ita.eng.iCV-MIRCrew.mkv
Format                                   : Matroska
Format version                           : Version 2
File size                                : 1.49 GiB
Duration                                 : 1h 40mn
Overall bit rate                         : 2 126 Kbps
Encoded date                             : UTC 2017-06-08T20:48:43Z
Writing application                      : HandBrake 0.10.5 2016021100
Writing library                          : Lavf55.12.0

Video
ID                                       : 1
Format                                   : AVC
Format/Info                              : Advanced Video Codec
Format profile                           : [email protected]
Format settings, CABAC                   : Yes
Format settings, ReFrames                : 4 frames
Codec ID                                 : V_MPEG4/ISO/AVC
Duration                                 : 1h 40mn
Bit rate                                 : 1 290 Kbps
Width                                    : 720 pixels
Height                                   : 404 pixels
Display aspect ratio                     : 16:9
Frame rate mode                          : Variable
Frame rate                               : 24.000 fps
Color space                              : YUV
Chroma subsampling                       : 4:2:0
Bit depth                                : 8 bits
Scan type                                : Progressive
Bits/(Pixel*Frame)                       : 0.185
Stream size                              : 897 MiB (59%)
Writing library                          : x264 core 142 r2479 dd79a61
Encoding settings                        : cabac=1 / ref=1 / deblock=1:-1:-1 / analyse=0x1:0x111 / me=hex / subme=2 / psy=1 / psy_rd=1.00:0.15 / mixed_ref=0 / me_range=16 / chroma_me=1 / trellis=0 / 8x8dct=0 / cqm=0 / deadzone=21,11 / fast_pskip=1 / chroma_qp_offset=0 / threads=12 / lookahead_threads=3 / sliced_threads=0 / nr=0 / decimate=1 / interlaced=0 / bluray_compat=0 / constrained_intra=0 / bframes=3 / b_pyramid=2 / b_adapt=1 / b_bias=0 / direct=1 / weightb=1 / open_gop=0 / weightp=1 / keyint=240 / keyint_min=24 / scenecut=40 / intra_refresh=0 / rc_lookahead=10 / rc=abr / mbtree=1 / bitrate=1290 / ratetol=1.0 / qcomp=0.60 / qpmin=0 / qpmax=69 / qpstep=4 / vbv_maxrate=20000 / vbv_bufsize=25000 / nal_hrd=none / filler=0 / ip_ratio=1.40 / aq=1:1.00
Default                                  : Yes
Forced                                   : No
Color primaries                          : BT.709-5, BT.1361, IEC 61966-2-4, SMPTE RP177
Transfer characteristics                 : BT.709-5, BT.1361
Matrix coefficients                      : BT.709-5, BT.1361, IEC 61966-2-4 709, SMPTE RP177

Audio #1
ID                                       : 2
Format                                   : AC-3
Format/Info                              : Audio Coding 3
Mode extension                           : CM (complete main)
Codec ID                                 : A_AC3
Duration                                 : 1h 40mn
Bit rate mode                            : Constant
Bit rate                                 : 448 Kbps
Channel(s)                               : 6 channels
Channel positions                        : Front: L C R, Side: L R, LFE
Sampling rate                            : 48.0 KHz
Bit depth                                : 16 bits
Compression mode                         : Lossy
Delay relative to video                  : 1mn 5s
Stream size                              : 321 MiB (21%)
Title                                    : Surround
Language                                 : Italian
Default                                  : Yes
Forced                                   : No

Audio #2
ID                                       : 3
Format                                   : AC-3
Format/Info                              : Audio Coding 3
Mode extension                           : CM (complete main)
Codec ID                                 : A_AC3
Duration                                 : 1h 40mn
Bit rate mode                            : Constant
Bit rate                                 : 384 Kbps
Channel(s)                               : 6 channels
Channel positions                        : Front: L C R, Side: L R, LFE
Sampling rate                            : 48.0 KHz
Bit depth                                : 16 bits
Compression mode                         : Lossy
Delay relative to video                  : 1mn 5s
Stream size                              : 275 MiB (18%)
Title                                    : Surround
Language                                 : English
Default                                  : No
Forced                                   : No

Text #1
ID                                       : 4
Format                                   : ASS
Codec ID                                 : S_TEXT/ASS
Codec ID/Info                            : Advanced Sub Station Alpha
Compression mode                         : Lossless
Language                                 : Italian
Default                                  : No
Forced                                   : No

Text #2
ID                                       : 5
Format                                   : ASS
Codec ID                                 : S_TEXT/ASS
Codec ID/Info                            : Advanced Sub Station Alpha
Compression mode                         : Lossless
Language                                 : Italian
Default                                  : No
Forced                                   : No

Text #3
ID                                       : 6
Format                                   : ASS
Codec ID                                 : S_TEXT/ASS
Codec ID/Info                            : Advanced Sub Station Alpha
Compression mode                         : Lossless
Language                                 : Italian
Default                                  : No
Forced                                   : No

Text #4
ID                                       : 7
Format                                   : ASS
Codec ID                                 : S_TEXT/ASS
Codec ID/Info                            : Advanced Sub Station Alpha
Compression mode                         : Lossless
Language                                 : English
Default                                  : No
Forced                                   : No

Text #5
ID                                       : 8
Format                                   : ASS
Codec ID                                 : S_TEXT/ASS
Codec ID/Info                            : Advanced Sub Station Alpha
Compression mode                         : Lossless
Language                                 : English
Default                                  : No
Forced                                   : No

Menu
00:00:00.000                             : :00:00:00.000
00:04:24.457                             : :00:04:24.306
00:08:38.874                             : :00:08:38.560
00:12:42.165                             : :00:12:41.970
00:16:45.915                             : :00:16:45.588
00:21:56.999                             : :00:21:56.857
00:25:31.456                             : :00:25:31.321
00:30:39.914                             : :00:30:39.629
00:33:52.415                             : :00:33:52.322
00:38:36.747                             : :00:38:36.648
00:44:05.789                             : :00:44:05.476
00:46:59.205                             : :00:46:59.025
00:49:41.289                             : :00:49:41.187
00:53:55.705                             : :00:53:55.482
00:59:10.997                             : :00:59:10.881
01:03:47.246                             : :01:03:47.032
01:06:20.580                             : :01:06:20.476
01:08:23.246                             : :01:08:23.016
01:11:27.328                             : :01:11:27.158
01:14:43.287                             : :01:14:43.062
01:17:51.328                             : :01:17:51.208
01:21:57.287                             : :01:21:57.037
01:25:02.328                             : :01:25:02.097
01:32:52.911                             : :01:32:52.525



[/spoiler]

[/center]

Info: Per scaricare devi usare un client come uTorrent o Transmission
AnnounceURL
udp://tracker.coppersurfer.tk:6969/announce
Hash a960c25a5e686388e4a83d93054284489a8e3893
Peers seeds: 48 , leech: 20
Size 1.49 GB
Completato 1066x
Aggiunto 16.06.17 - 09:06:31
Uploader   robbyrs
Votazione (Voti: 1)


Condividi questo bittorrent:


html/blog:


bbcode/forum:




Aggiungi Commento
Ultimi commenti
  
Grazie!!
18/06 15.17
Tutti commenti (1)


counter