* Dettagli Torrent   globale  | Commenti (0) 


- Fiore del deserto - Desert Flower (2009).H264.Italian.English.Ac3.sub.ita.iCV-MIRCrew -


Download via torrent:
Categoria bittorrent BDRip
Descrizione
Fiore del deserto - Desert Flower (2009).H264.Italian.English.Ac3.sub.ita.iCV-MIRCrew

[center]by www.icv-crew-org


NO FOUND ONLY ORIGINAL RELEASE



My release is always in double track audio italian and Original audio
for select it use VLC or dvd player home
not use wmp

Fiore del deserto - Desert Flower (2009)


PRESENTI ANCHE i SOTTOTITOLI

ESTERNI IN SRT (ita)









   DATA USCITA: 14 aprile 2016
   GENERE: Biografico, Drammatico
   ANNO: 2009
   REGIA: Sherry Hormann
   

   SCENEGGIATURA: Sherry Hormann
   FOTOGRAFIA: Ken Kelsch
   MONTAGGIO: Clara Fabry
   MUSICHE: Martin Todsharow
   PRODUZIONE: Desert Flower Filmproductions, Majestic Filmproduktion, MTM West Television & Film
   DISTRIBUZIONE: Ahora
   PAESE: Gran Bretagna, Germania, Australia, Francia
   DURATA: 120 Min




Liya Kebede, Sally Hawkins, Timothy Spall



La vera storia di Waris Dirie, che inizia nei deserti africani per finire nel mondo delle top model. All'età di 13 anni fugge dalla famiglia nomade per scampare ad un matrimonio forzato. Aiutata dalla nonna a Mogadiscio, viene inviata a Londra dove diventa una serva dell’Ambasciata Somala................



The autobiography of a Somalian nomad circumcised at 3, sold in marriage at 13, fled from Africa a while later to become finally an American supermodel and is now at the age of 38, the UN ...















[spoiler]
General
Unique ID                                : 280042593910518655376820290680949985812 (0xD2AE3DE21F8199630756BD4066D65214)
Complete name                            : Fiore del deserto - Desert Flower (2009).H264.ita.eng.sub.ita.iCV-MIRCrew.mkv
Format                                   : Matroska
Format version                           : Version 2
File size                                : 1.49 GiB
Duration                                 : 2h 7mn
Overall bit rate                         : 1 672 Kbps
Movie name                               : www.icv-crew.org
Encoded date                             : UTC 2017-03-05 13:07:28
Writing application                      : Lavf54.63.100
Writing library                          : Lavf54.63.100
COPYRIGHT                                : robbyrs

Video
ID                                       : 1
Format                                   : AVC
Format/Info                              : Advanced Video Codec
Format profile                           : [email protected]
Format settings, CABAC                   : Yes
Format settings, ReFrames                : 2 frames
Codec ID                                 : V_MPEG4/ISO/AVC
Duration                                 : 2h 7mn
Bit rate                                 : 1 290 Kbps
Width                                    : 720 pixels
Height                                   : 384 pixels
Display aspect ratio                     : 16:9
Frame rate mode                          : Variable
Frame rate                               : 24.000 fps
Color space                              : YUV
Chroma subsampling                       : 4:2:0
Bit depth                                : 8 bits
Scan type                                : Progressive
Bits/(Pixel*Frame)                       : 0.194
Stream size                              : 1.12 GiB (75%)
Writing library                          : x264 core 130 r2273
Encoding settings                        : cabac=1 / ref=2 / deblock=1:0:0 / analyse=0x1:0x131 / me=hex / subme=7 / psy=1 / psy_rd=1.00:0.00 / mixed_ref=0 / me_range=16 / chroma_me=1 / trellis=1 / 8x8dct=0 / cqm=0 / deadzone=21,11 / fast_pskip=1 / chroma_qp_offset=-2 / threads=12 / lookahead_threads=2 / sliced_threads=0 / nr=0 / decimate=1 / interlaced=0 / bluray_compat=0 / constrained_intra=0 / bframes=3 / b_pyramid=0 / b_adapt=1 / b_bias=0 / direct=3 / weightb=1 / open_gop=0 / weightp=2 / keyint=240 / keyint_min=24 / scenecut=40 / intra_refresh=0 / rc_lookahead=40 / rc=abr / mbtree=1 / bitrate=1290 / ratetol=1.0 / qcomp=0.60 / qpmin=10 / qpmax=69 / qpstep=4 / vbv_maxrate=24000 / vbv_bufsize=24000 / nal_hrd=none / ip_ratio=1.40 / aq=1:1.00
Language                                 : Italian
Default                                  : Yes
Forced                                   : No
DURATION                                 : 02:07:39.834000000
NUMBER_OF_FRAMES                         : 183836
NUMBER_OF_BYTES                          : 7937424168
_STATISTICS_WRITING_APP                  : mkvmerge v7.4.0 ('Circles') 32bit built on Dec 12 2014 12:10:09
_STATISTICS_WRITING_DATE_UTC             : 2017-03-05 13:07:28
_STATISTICS_TAGS                         : BPS DURATION NUMBER_OF_FRAMES NUMBER_OF_BYTES

Audio #1
ID                                       : 2
Format                                   : AC-3
Format/Info                              : Audio Coding 3
Mode extension                           : CM (complete main)
Codec ID                                 : A_AC3
Duration                                 : 2h 7mn
Bit rate mode                            : Constant
Bit rate                                 : 192 Kbps
Channel(s)                               : 2 channels
Channel positions                        : Front: L R
Sampling rate                            : 48.0 KHz
Bit depth                                : 16 bits
Compression mode                         : Lossy
Delay relative to video                  : 1mn 5s
Stream size                              : 175 MiB (11%)
Language                                 : Italian
Default                                  : Yes
Forced                                   : No
DURATION                                 : 02:07:36.896000000
NUMBER_OF_FRAMES                         : 239278
NUMBER_OF_BYTES                          : 183765504
_STATISTICS_WRITING_APP                  : mkvmerge v7.4.0 ('Circles') 32bit built on Dec 12 2014 12:10:09
_STATISTICS_WRITING_DATE_UTC             : 2017-03-05 13:07:28
_STATISTICS_TAGS                         : BPS DURATION NUMBER_OF_FRAMES NUMBER_OF_BYTES

Audio #2
ID                                       : 3
Format                                   : AC-3
Format/Info                              : Audio Coding 3
Mode extension                           : CM (complete main)
Codec ID                                 : A_AC3
Duration                                 : 2h 7mn
Bit rate mode                            : Constant
Bit rate                                 : 192 Kbps
Channel(s)                               : 2 channels
Channel positions                        : Front: L R
Sampling rate                            : 48.0 KHz
Bit depth                                : 16 bits
Compression mode                         : Lossy
Delay relative to video                  : 1mn 5s
Stream size                              : 175 MiB (11%)
Language                                 : English
Default                                  : No
Forced                                   : No
DURATION                                 : 02:07:39.904000000
NUMBER_OF_FRAMES                         : 239372
NUMBER_OF_BYTES                          : 612792320
_STATISTICS_WRITING_APP                  : mkvmerge v7.4.0 ('Circles') 32bit built on Dec 12 2014 12:10:09
_STATISTICS_WRITING_DATE_UTC             : 2017-03-05 13:07:28
_STATISTICS_TAGS                         : BPS DURATION NUMBER_OF_FRAMES NUMBER_OF_BYTES

Text #1
ID                                       : 4
Format                                   : ASS
Codec ID                                 : S_TEXT/ASS
Codec ID/Info                            : Advanced Sub Station Alpha
Compression mode                         : Lossless
Title                                    : Forced
Language                                 : Italian
Default                                  : Yes
Forced                                   : No
DURATION                                 : 00:24:48.303000000
NUMBER_OF_FRAMES                         : 2
NUMBER_OF_BYTES                          : 39
_STATISTICS_WRITING_APP                  : mkvmerge v7.4.0 ('Circles') 32bit built on Dec 12 2014 12:10:09
_STATISTICS_WRITING_DATE_UTC             : 2017-03-05 13:07:28
_STATISTICS_TAGS                         : BPS DURATION NUMBER_OF_FRAMES NUMBER_OF_BYTES

Text #2
ID                                       : 5
Format                                   : ASS
Codec ID                                 : S_TEXT/ASS
Codec ID/Info                            : Advanced Sub Station Alpha
Compression mode                         : Lossless
Language                                 : Italian
Default                                  : No
Forced                                   : No
DURATION                                 : 01:59:25.667000000
NUMBER_OF_FRAMES                         : 817
NUMBER_OF_BYTES                          : 36340
_STATISTICS_WRITING_APP                  : mkvmerge v7.4.0 ('Circles') 32bit built on Dec 12 2014 12:10:09
_STATISTICS_WRITING_DATE_UTC             : 2017-03-05 13:07:28
_STATISTICS_TAGS                         : BPS DURATION NUMBER_OF_FRAMES NUMBER_OF_BYTES



[/spoiler]

[/center]



Info: Per scaricare devi usare un client come uTorrent o Transmission
AnnounceURL
udp://tracker.coppersurfer.tk:6969/announce
Hash 907ef671c66b05b8aedb7016b76e3cb305e9e2ce
Peers seeds: 23 , leech: 4
Size 1.49 GB
Completato 340x
Aggiunto 15.06.17 - 10:06:36
Uploader   robbyrs
Votazione (Voti: 0)


Condividi questo bittorrent:


html/blog:


bbcode/forum:




Aggiungi Commento


counter