* Dettagli Torrent   globale  | Commenti (0) 


- Il passo del diavolo - Devils Pass (2013).H264.Italian.English.Ac3.5.1.sub.ita.iCV-MIRCrew -


Download via torrent:
Categoria bittorrent BDRip
Descrizione
Il passo del diavolo - Devil's Pass (2013).H264.Italian.English.Ac3.5.1.sub.ita.iCV-MIRCrew

[center]


NO FOUND ONLY ORIGINAL RELEASE



My release is always in double track audio italian and Original audio
for select it use VLC or dvd player home
not use wmp

Il passo del diavolo - Devil's Pass (2013)

PRESENTI ANCHE i SOTTOTITOLI

ESTERNI IN SRT (ita/eng)










Titolo originale Devil's Pass
Lingua originale inglese e russo
Paese di produzione USA, Regno Unito, Russia
Anno 2013
Durata 100 min
Rapporto 1.85 : 1
Genere orrore
Regia Renny Harlin
Sceneggiatura Vikram Weet
Produttore Sergei Bespalov, Renny Harlin, Kia Jam, Sergey Melkumov e Alexander Rodnyansky
Produttore esecutivo Russell Gray e Boris Teterev
Casa di produzione Aldamisa Entertainment, K. JAM Media, Future Films, Midnight Sun Pictures e Non-Stop Productions
Fotografia Denis Alarkon-Ramires
Montaggio Steven Mirkovich
Effetti speciali Martin Astles, Ilya Churinov, Chris Hampton, Seth William Meier, Roman Pershin, Ilya Sherstobitov, Igor Titov, Todd Tucker, Mikhail Yakushev e Andrey Zhandarmov
Costumi Varvara Avdyushko
Trucco Joe Colwell, Marina Evseenko, Ekaterina Koveshnikova, Irina Lyashko e Crystal Ro





   Holly Goss: Holly King
   Matt Stokoe: Jensen Day
   Luke Albright: John Patrick "JP" Hauser Jr.
   Ryan Hawley: Andy Thatcher
   Gemma Atkinson: Denise Evers
   Nikolay Butenin: Sergei
   Nelly Nielsen: Alya (73 anni)
   Valeriy Fedorovich: Alya (20 anni)
   Aleksey Kink: Vallik




Un gruppo di giovani studenti statunitensi ripercorre le orme della spedizione che nel 1959 fu ritrovata sterminata sui Monti Urali. Muniti di strumentazioni e di macchina da presa, il gruppo, capeggiato dall'antropologa Holly, si avventura nell'entroterra russo, visitando alcuni luoghi toccati dai precedenti membri, tra cui l'ospedale psichiatrico dove è rinchiuso l'unico sopravvissuto e la taverna, dove i 9 escursionisti russi sostarono la notte prima di partire..........



A group of 5 students go the location of the infamous "dyatlov pass incident", to make a documentary but things take a turn for the worse to reveal the secrets as to what happened there.













[spoiler]
General
Unique ID                                : 299321884024474363216249426019231160044 (0xE12F4C4624E303265608A49D5D4356EC)
Complete name                            : Il passo del diavolo - Devil's Pass (2013) Ita.eng.sub.ita.iCV-MIRCrew.mkv
Format                                   : Matroska
Format version                           : Version 2
File size                                : 1.53 GiB
Duration                                 : 1h 40mn
Overall bit rate                         : 2 184 Kbps
Movie name                               : www.icv-crew.org
Encoded date                             : UTC 2017-05-01 15:56:26
Writing application                      : Lavf54.63.100
Writing library                          : Lavf54.63.100
COPYRIGHT                                : robbyrs

Video
ID                                       : 1
Format                                   : AVC
Format/Info                              : Advanced Video Codec
Format profile                           : [email protected]
Format settings, CABAC                   : Yes
Format settings, ReFrames                : 2 frames
Codec ID                                 : V_MPEG4/ISO/AVC
Duration                                 : 1h 40mn
Bit rate                                 : 1 290 Kbps
Width                                    : 688 pixels
Height                                   : 368 pixels
Display aspect ratio                     : 1.851
Original display aspect ratio            : 1.850
Frame rate mode                          : Variable
Frame rate                               : 23.976 fps
Color space                              : YUV
Chroma subsampling                       : 4:2:0
Bit depth                                : 8 bits
Scan type                                : Progressive
Bits/(Pixel*Frame)                       : 0.213
Stream size                              : 892 MiB (57%)
Writing library                          : x264 core 130 r2273
Encoding settings                        : cabac=1 / ref=2 / deblock=1:0:0 / analyse=0x1:0x131 / me=hex / subme=7 / psy=1 / psy_rd=1.00:0.00 / mixed_ref=0 / me_range=16 / chroma_me=1 / trellis=1 / 8x8dct=0 / cqm=0 / deadzone=21,11 / fast_pskip=1 / chroma_qp_offset=-2 / threads=12 / lookahead_threads=2 / sliced_threads=0 / nr=0 / decimate=1 / interlaced=0 / bluray_compat=0 / constrained_intra=0 / bframes=3 / b_pyramid=0 / b_adapt=1 / b_bias=0 / direct=3 / weightb=1 / open_gop=0 / weightp=2 / keyint=230 / keyint_min=23 / scenecut=40 / intra_refresh=0 / rc_lookahead=40 / rc=abr / mbtree=1 / bitrate=1290 / ratetol=1.0 / qcomp=0.60 / qpmin=10 / qpmax=69 / qpstep=4 / vbv_maxrate=24000 / vbv_bufsize=24000 / nal_hrd=none / ip_ratio=1.40 / aq=1:1.00
Language                                 : Italian
Default                                  : Yes
Forced                                   : No

Audio #1
ID                                       : 2
Format                                   : AC-3
Format/Info                              : Audio Coding 3
Mode extension                           : CM (complete main)
Codec ID                                 : A_AC3
Duration                                 : 1h 40mn
Bit rate mode                            : Constant
Bit rate                                 : 448 Kbps
Channel(s)                               : 6 channels
Channel positions                        : Front: L C R, Side: L R, LFE
Sampling rate                            : 48.0 KHz
Bit depth                                : 16 bits
Compression mode                         : Lossy
Delay relative to video                  : 1mn 5s
Stream size                              : 321 MiB (21%)
Title                                    : AC3 Ita 5.1 Ch
Language                                 : Italian
Default                                  : Yes
Forced                                   : Yes

Audio #2
ID                                       : 3
Format                                   : AC-3
Format/Info                              : Audio Coding 3
Mode extension                           : CM (complete main)
Codec ID                                 : A_AC3
Duration                                 : 1h 40mn
Bit rate mode                            : Constant
Bit rate                                 : 448 Kbps
Channel(s)                               : 6 channels
Channel positions                        : Front: L C R, Side: L R, LFE
Sampling rate                            : 48.0 KHz
Bit depth                                : 16 bits
Compression mode                         : Lossy
Delay relative to video                  : 1mn 5s
Stream size                              : 321 MiB (21%)
Title                                    : AC3 Eng 5.1 Ch
Language                                 : English
Default                                  : No
Forced                                   : No

Text #1
ID                                       : 4
Format                                   : ASS
Codec ID                                 : S_TEXT/ASS
Codec ID/Info                            : Advanced Sub Station Alpha
Compression mode                         : Lossless
Title                                    : Subs Ita Regular
Language                                 : Italian
Default                                  : No
Forced                                   : No

Text #2
ID                                       : 5
Format                                   : ASS
Codec ID                                 : S_TEXT/ASS
Codec ID/Info                            : Advanced Sub Station Alpha
Compression mode                         : Lossless
Title                                    : FORCED Ita
Language                                 : Italian
Default                                  : Yes
Forced                                   : Yes

Menu
00:00:00.000                             : :00:00:00.000
00:07:22.067                             : :00:07:22.067
00:18:57.345                             : :00:18:57.345
00:25:21.937                             : :00:25:21.937
00:33:24.002                             : :00:33:24.002
00:41:18.476                             : :00:41:18.476
00:52:35.778                             : :00:52:35.778
00:58:13.323                             : :00:58:13.323
01:06:56.638                             : :01:06:56.638
01:15:38.534                             : :01:15:38.534
01:23:10.986                             : :01:23:10.986
01:33:14.589                             : :01:33:14.589



[/spoiler]

[/center]

Info: Per scaricare devi usare un client come uTorrent o Transmission
AnnounceURL
udp://tracker.coppersurfer.tk:6969/announce
Hash 49035bc62e726e4fe34260e5a92a87d0ff8b571d
Peers seeds: 62 , leech: 8
Size 1.53 GB
Completato 1258x
Aggiunto 14.06.17 - 07:06:18
Uploader   robbyrs
Votazione (Voti: 0)


Condividi questo bittorrent:


html/blog:


bbcode/forum:




Aggiungi Commento


counter