* Dettagli Torrent   globale  | Commenti (0) 


- Il Diritto di Contare (2016).H264.Italian.English.Ac3.5.1.sub.ita.iCV-MIRCrew -


Download via torrent:
Categoria bittorrent BDRip
Descrizione
Il Diritto di Contare - Hidden Figures (2016).H264.Italian.English.Ac3.5.1.sub.ita.iCV-MIRCrew

[center]by www.icv-crew.org


NO FOUND ONLY ORIGINAL RELEASE



My release is always in double track audio italian and Original audio
for select it use VLC or dvd player home
not use wmp

Il Diritto di Contare - Hidden Figures (2016)










DATA USCITA: 08 marzo 2017
GENERE: Drammatico
ANNO: 2016
REGIA: Theodore Melfi
SCENEGGIATURA: Theodore Melfi, Allison Schroeder
FOTOGRAFIA: Mandy Walker
MONTAGGIO: Peter Teschner
PRODUZIONE: Chernin Entertainment, Fox 2000 Picture
DISTRIBUZIONE: 20th Century Fox
PAESE: USA
DURATA: 127 Min




Taraji P. Henson, Octavia Spencer, Janelle Monáe, Kevin Costner, Kirsten Dunst, Jim Parsons, Mahershala Ali, Aldis Hodge, Glen Powell, Kimberly Quinn



L'incredibile storia mai raccontata di Katherine Johnson (Taraji P. Henson), Dorothy Vaughn (Octavia Spencer) e Mary Jackson (Janelle Monae), tre brillanti donne afroamericane che – alla NASA – lavorarono ad una delle più grandi operazioni della storia: la spedizione in orbita dell'astronauta John Glenn, un obbiettivo importante che non solo riportò fiducia nella nazione, ma che ribaltò la Corsa allo Spazio, galvanizzando il mondo intero. ..........



The story of a team of female African-American mathematicians who served a vital role in NASA during the early years of the U.S. space program.















[spoiler]
General
Unique ID                                : 224116977281579398009955582319562364956 (0xA89B5C192E0DD567F85428D3916C981C)
Complete name                            : Il Diritto di Contare - Hidden Figures (2016).H264.ita.eng.sub.ita.eng.iCV.MIRCrew.mkv
Format                                   : Matroska
Format version                           : Version 2
File size                                : 1.88 GiB
Duration                                 : 2h 6mn
Overall bit rate                         : 2 125 Kbps
Encoded date                             : UTC 2017-06-02T15:15:30Z
Writing application                      : HandBrake 0.10.5 2016021100
Writing library                          : Lavf55.12.0

Video
ID                                       : 1
Format                                   : AVC
Format/Info                              : Advanced Video Codec
Format profile                           : [email protected]
Format settings, CABAC                   : Yes
Format settings, ReFrames                : 4 frames
Codec ID                                 : V_MPEG4/ISO/AVC
Duration                                 : 2h 6mn
Bit rate                                 : 1 290 Kbps
Width                                    : 720 pixels
Height                                   : 300 pixels
Display aspect ratio                     : 2.40:1
Frame rate mode                          : Variable
Frame rate                               : 23.976 fps
Color space                              : YUV
Chroma subsampling                       : 4:2:0
Bit depth                                : 8 bits
Scan type                                : Progressive
Bits/(Pixel*Frame)                       : 0.249
Stream size                              : 1.11 GiB (59%)
Writing library                          : x264 core 142 r2479 dd79a61
Encoding settings                        : cabac=1 / ref=1 / deblock=1:0:0 / analyse=0x1:0x111 / me=hex / subme=2 / psy=1 / psy_rd=1.00:0.00 / mixed_ref=0 / me_range=16 / chroma_me=1 / trellis=0 / 8x8dct=0 / cqm=0 / deadzone=21,11 / fast_pskip=1 / chroma_qp_offset=0 / threads=12 / lookahead_threads=2 / sliced_threads=0 / nr=0 / decimate=1 / interlaced=0 / bluray_compat=0 / constrained_intra=0 / bframes=3 / b_pyramid=2 / b_adapt=1 / b_bias=0 / direct=1 / weightb=1 / open_gop=0 / weightp=1 / keyint=240 / keyint_min=24 / scenecut=40 / intra_refresh=0 / rc_lookahead=10 / rc=abr / mbtree=1 / bitrate=1290 / ratetol=1.0 / qcomp=0.60 / qpmin=0 / qpmax=69 / qpstep=4 / vbv_maxrate=20000 / vbv_bufsize=25000 / nal_hrd=none / filler=0 / ip_ratio=1.40 / aq=1:1.00
Default                                  : Yes
Forced                                   : No
Color primaries                          : BT.709-5, BT.1361, IEC 61966-2-4, SMPTE RP177
Transfer characteristics                 : BT.709-5, BT.1361
Matrix coefficients                      : BT.709-5, BT.1361, IEC 61966-2-4 709, SMPTE RP177

Audio #1
ID                                       : 2
Format                                   : AC-3
Format/Info                              : Audio Coding 3
Mode extension                           : CM (complete main)
Codec ID                                 : A_AC3
Duration                                 : 2h 6mn
Bit rate mode                            : Constant
Bit rate                                 : 448 Kbps
Channel(s)                               : 6 channels
Channel positions                        : Front: L C R, Side: L R, LFE
Sampling rate                            : 48.0 KHz
Bit depth                                : 16 bits
Compression mode                         : Lossy
Delay relative to video                  : 1mn 5s
Stream size                              : 406 MiB (21%)
Title                                    : Surround
Language                                 : Italian
Default                                  : Yes
Forced                                   : No

Audio #2
ID                                       : 3
Format                                   : AC-3
Format/Info                              : Audio Coding 3
Mode extension                           : CM (complete main)
Codec ID                                 : A_AC3
Duration                                 : 2h 6mn
Bit rate mode                            : Constant
Bit rate                                 : 384 Kbps
Channel(s)                               : 6 channels
Channel positions                        : Front: L C R, Side: L R, LFE
Sampling rate                            : 48.0 KHz
Bit depth                                : 16 bits
Compression mode                         : Lossy
Delay relative to video                  : 1mn 5s
Stream size                              : 348 MiB (18%)
Title                                    : Surround
Language                                 : Italian
Default                                  : No
Forced                                   : No

Text #1
ID                                       : 4
Format                                   : ASS
Codec ID                                 : S_TEXT/ASS
Codec ID/Info                            : Advanced Sub Station Alpha
Compression mode                         : Lossless
Language                                 : Italian
Default                                  : No
Forced                                   : No

Text #2
ID                                       : 5
Format                                   : ASS
Codec ID                                 : S_TEXT/ASS
Codec ID/Info                            : Advanced Sub Station Alpha
Compression mode                         : Lossless
Language                                 : Italian
Default                                  : No
Forced                                   : No

Text #3
ID                                       : 6
Format                                   : ASS
Codec ID                                 : S_TEXT/ASS
Codec ID/Info                            : Advanced Sub Station Alpha
Compression mode                         : Lossless
Language                                 : English
Default                                  : No
Forced                                   : No

Menu
00:00:00.000                             : :00:00:00.000
00:07:05.425                             : :00:07:05.342
00:14:28.325                             : :00:14:28.201
00:20:13.921                             : :00:20:13.838
00:29:27.223                             : :00:29:27.099
00:39:02.715                             : :00:39:02.590
00:50:56.887                             : :00:50:56.804
00:59:52.839                             : :00:59:52.756
01:08:53.212                             : :01:08:53.129
01:16:20.033                             : :01:16:19.950
01:25:27.789                             : :01:25:27.706
01:35:23.342                             : :01:35:23.259
01:45:16.435                             : :01:45:16:300
01:55:01.269                             : :01:55:01:150
02:05:00.284                             : :02:05:00:150




[/spoiler]

[/center]

Info: Per scaricare devi usare un client come uTorrent o Transmission
AnnounceURL
udp://tracker.coppersurfer.tk:6969/announce
Hash 9108dcda201e853ebca8883e9313b268ee019aed
Peers seeds: 87 , leech: 21
Size 1.88 GB
Completato 1160x
Aggiunto 14.06.17 - 06:06:20
Uploader   robbyrs
Votazione (Voti: 0)


Condividi questo bittorrent:


html/blog:


bbcode/forum:




Aggiungi Commento


counter