* Dettagli Torrent   globale  | Commenti (1) 


- Harbinger Down - Terrore tra i ghiacci (2015).H264.Italian.English.Ac3.5.1.sub.ita.iCV-MIRCrew -


Download via torrent:
Categoria bittorrent BDRip
Descrizione
Harbinger Down - Terrore tra i ghiacci (2015).H264.Italian.English.Ac3.5.1.sub.ita.iCV-MIRCrew

[center]


NO FOUND ONLY ORIGINAL RELEASE



My release is always in double track audio italian and Original audio
for select it use VLC or dvd player home
not use wmp

Harbinger Down - Terrore tra i ghiacci (2015)

PRESENTI ANCHE i SOTTOTITOLI

ESTERNI IN SRT (ita)







Harbinger Down – Terrore tra i ghiacci
HORROR
DURATA 82?
USA



Camille Balsamo,Lance Henriksen,Matt Winston



Un gruppo di studenti universitari guidati dal comandante Graff (Lance Henriksen) si avventura nel mare di Bering per studiare l’effetto del riscaldamento globale su un branco di orche. A bordo del peschereccio Harbinger, l’equipaggio si imbattera in un relitto sovietico incastonato nei ghiacci. Li troveranno delle..................



While studying the effects of global warming on a pod of whales, grad students on a crabbing vessel and it's crew uncovers a froze soviet space shuttle, and unintentionally releases a monstrous organism from it











[spoiler]
General
Unique ID                                : 251466900965584839435987790302855921430 (0xBD2EC3720FB40393956C48E8DF997F16)
Complete name                            : Harbinger Down - Terrore tra i ghiacci (2015).H264.ita.eng.sub.ita.iCV-MIRCrew.mkv
Format                                   : Matroska
Format version                           : Version 2
File size                                : 1.24 GiB
Duration                                 : 1h 22mn
Overall bit rate                         : 2 156 Kbps
Movie name                               : www.icv-crew.org
Encoded date                             : UTC 2017-06-08 21:03:26
Writing application                      : Lavf54.63.100
Writing library                          : Lavf54.63.100
COPYRIGHT                                : robbyrs

Video
ID                                       : 1
Format                                   : AVC
Format/Info                              : Advanced Video Codec
Format profile                           : [email protected]
Format settings, CABAC                   : Yes
Format settings, ReFrames                : 2 frames
Codec ID                                 : V_MPEG4/ISO/AVC
Duration                                 : 1h 22mn
Bit rate                                 : 1 218 Kbps
Nominal bit rate                         : 1 290 Kbps
Width                                    : 720 pixels
Height                                   : 300 pixels
Display aspect ratio                     : 2.40:1
Frame rate mode                          : Variable
Frame rate                               : 23.976 fps
Color space                              : YUV
Chroma subsampling                       : 4:2:0
Bit depth                                : 8 bits
Scan type                                : Progressive
Bits/(Pixel*Frame)                       : 0.235
Stream size                              : 715 MiB (56%)
Writing library                          : x264 core 130 r2273
Encoding settings                        : cabac=1 / ref=2 / deblock=1:0:0 / analyse=0x1:0x131 / me=hex / subme=7 / psy=1 / psy_rd=1.00:0.00 / mixed_ref=0 / me_range=16 / chroma_me=1 / trellis=1 / 8x8dct=0 / cqm=0 / deadzone=21,11 / fast_pskip=1 / chroma_qp_offset=-2 / threads=12 / lookahead_threads=2 / sliced_threads=0 / nr=0 / decimate=1 / interlaced=0 / bluray_compat=0 / constrained_intra=0 / bframes=3 / b_pyramid=0 / b_adapt=1 / b_bias=0 / direct=3 / weightb=1 / open_gop=0 / weightp=2 / keyint=230 / keyint_min=23 / scenecut=40 / intra_refresh=0 / rc_lookahead=40 / rc=abr / mbtree=1 / bitrate=1290 / ratetol=1.0 / qcomp=0.60 / qpmin=10 / qpmax=69 / qpstep=4 / vbv_maxrate=24000 / vbv_bufsize=24000 / nal_hrd=none / ip_ratio=1.40 / aq=1:1.00
Language                                 : Italian
Default                                  : Yes
Forced                                   : No
DURATION                                 : 01:22:00.666000000
NUMBER_OF_FRAMES                         : 117978
NUMBER_OF_BYTES                          : 8607221979
_STATISTICS_WRITING_APP                  : mkvmerge v8.7.0 ('All of the above') 64bit
_STATISTICS_WRITING_DATE_UTC             : 2017-06-06 15:53:54
_STATISTICS_TAGS                         : BPS DURATION NUMBER_OF_FRAMES NUMBER_OF_BYTES

Audio #1
ID                                       : 2
Format                                   : AC-3
Format/Info                              : Audio Coding 3
Mode extension                           : CM (complete main)
Codec ID                                 : A_AC3
Duration                                 : 1h 22mn
Bit rate mode                            : Constant
Bit rate                                 : 448 Kbps
Channel(s)                               : 6 channels
Channel positions                        : Front: L C R, Side: L R, LFE
Sampling rate                            : 48.0 KHz
Bit depth                                : 16 bits
Compression mode                         : Lossy
Delay relative to video                  : 1mn 5s
Stream size                              : 263 MiB (21%)
Title                                    : AC3 ITA
Language                                 : Italian
Default                                  : No
Forced                                   : No
DURATION                                 : 01:21:52.224000000
NUMBER_OF_FRAMES                         : 153507
NUMBER_OF_BYTES                          : 392977920
_STATISTICS_WRITING_APP                  : mkvmerge v8.7.0 ('All of the above') 64bit
_STATISTICS_WRITING_DATE_UTC             : 2017-06-06 15:53:54
_STATISTICS_TAGS                         : BPS DURATION NUMBER_OF_FRAMES NUMBER_OF_BYTES

Audio #2
ID                                       : 3
Format                                   : AC-3
Format/Info                              : Audio Coding 3
Mode extension                           : CM (complete main)
Codec ID                                 : A_AC3
Duration                                 : 1h 22mn
Bit rate mode                            : Constant
Bit rate                                 : 448 Kbps
Channel(s)                               : 6 channels
Channel positions                        : Front: L C R, Side: L R, LFE
Sampling rate                            : 48.0 KHz
Bit depth                                : 16 bits
Compression mode                         : Lossy
Delay relative to video                  : 1mn 5s
Stream size                              : 263 MiB (21%)
Title                                    : AC3 ENG
Language                                 : English
Default                                  : No
Forced                                   : No
DURATION                                 : 01:22:07.936000000
NUMBER_OF_FRAMES                         : 153998
NUMBER_OF_BYTES                          : 394234880
_STATISTICS_WRITING_APP                  : mkvmerge v8.7.0 ('All of the above') 64bit
_STATISTICS_WRITING_DATE_UTC             : 2017-06-06 15:53:54
_STATISTICS_TAGS                         : BPS DURATION NUMBER_OF_FRAMES NUMBER_OF_BYTES

Text #1
ID                                       : 4
Format                                   : ASS
Codec ID                                 : S_TEXT/ASS
Codec ID/Info                            : Advanced Sub Station Alpha
Compression mode                         : Lossless
Title                                    : FORCED
Language                                 : Italian
Default                                  : Yes
Forced                                   : Yes
DURATION                                 : 00:00:02.336000000
NUMBER_OF_FRAMES                         : 1
NUMBER_OF_BYTES                          : 35
_STATISTICS_WRITING_APP                  : mkvmerge v8.7.0 ('All of the above') 64bit
_STATISTICS_WRITING_DATE_UTC             : 2017-06-06 15:53:54
_STATISTICS_TAGS                         : BPS DURATION NUMBER_OF_FRAMES NUMBER_OF_BYTES

Text #2
ID                                       : 5
Format                                   : ASS
Codec ID                                 : S_TEXT/ASS
Codec ID/Info                            : Advanced Sub Station Alpha
Compression mode                         : Lossless
Title                                    : REGULAR
Language                                 : Italian
Default                                  : No
Forced                                   : No
DURATION                                 : 01:15:03.345000000
NUMBER_OF_FRAMES                         : 621
NUMBER_OF_BYTES                          : 25382
_STATISTICS_WRITING_APP                  : mkvmerge v8.7.0 ('All of the above') 64bit
_STATISTICS_WRITING_DATE_UTC             : 2017-06-06 15:53:54
_STATISTICS_TAGS                         : BPS DURATION NUMBER_OF_FRAMES NUMBER_OF_BYTES

Menu
00:00:00.000                             : :00:00:00.000
00:07:28.573                             : :00:07:28.573
00:12:59.404                             : :00:12:59.404
00:21:27.286                             : :00:21:27.286
00:28:53.982                             : :00:28:53.982
00:35:06.021                             : :00:35:06.021
00:41:19.977                             : :00:41:19.977
00:48:03.214                             : :00:48:03.214
00:54:53.957                             : :00:54:53.957
01:00:23.411                             : :01:00:23.411
01:07:33.258                             : :01:07:33.258
01:17:36.068                             : :01:17:36.068



[/spoiler]

[/center]

Info: Per scaricare devi usare un client come uTorrent o Transmission
AnnounceURL
udp://tracker.coppersurfer.tk:6969/announce
Hash af28dd3dd45173aa7eb15909ee914f86ad3519a5
Peers seeds: 15 , leech: 1
Size 1.24 GB
Completato 4917x
Aggiunto 11.06.17 - 05:06:11
Uploader   robbyrs
Votazione (Voti: 1)


Condividi questo bittorrent:


html/blog:


bbcode/forum:




Aggiungi Commento
Ultimi commenti
 yuzza74yuzza74   
??? qlc nn quadra nell'elenco del cast
11/06 10.30
Tutti commenti (1)


counter