* Dettagli Torrent   globale  | Commenti (0) 


- Curioso come George (2006).H264.Italian.English.Ac3.5.1.sub.ita.eng.iCV-MIRCrew -


Download via torrent:
Categoria bittorrent BDRip
Descrizione
Curious George - Curioso come George (2006).H264.Italian.English.Ac3.5.1.sub.ita.iCV-MIRCrew


[center]by www.icv-crew.org


NO FOUND ONLY ORIGINAL RELEASE



My release is always in double track audio italian and Original audio
for select it use VLC or dvd player home
not use wmp

Curious George - Curioso come George (2006)

PRESENTI ANCHE i SOTTOTITOLI

ESTERNI (ita/eng)








   DATA USCITA: 23 giugno 2006
   GENERE: Animazione
   ANNO: 2006
   REGIA: Matthew O'Callaghan

   SCENEGGIATURA: Ken Kaufman
   MONTAGGIO: Julie Rogers
   MUSICHE: Heitor Pereira
   PRODUZIONE: Imagine Entertainment, Universal Pictures,
   DISTRIBUZIONE: UIP,
   PAESE: USA
   DURATA: 86 Min




Basato sui celebri racconti che hanno incantato i piccoli lettori per più di 60 anni, il film vede George, la scimmietta curiosissima con un'insaziabile voglia di avventura, che dà il via ad una nuova storia in cui, grazie alla sua natura coraggiosa e amante del divertimento..............



The Man in the Yellow Hat is an oddball museum employee who looks after his pet monkey - an inquisitive and wonderful creature whose enthusiasm often gets the best of him.











[spoiler]
General
Unique ID                                : 29048683510202099717162252872098597188 (0x15DA92AC4F3401C9EDF45C518A2D4944)
Complete name                            : Curioso come George (2006).H264.ita.eng.sub.ita.eng.iCV-MIRCrew.mkv
Format                                   : Matroska
Format version                           : Version 2
File size                                : 1.28 GiB
Duration                                 : 1h 27mn
Overall bit rate                         : 2 102 Kbps
Movie name                               : www.icv-crew.org
Encoded date                             : UTC 2017-05-22 17:16:00
Writing application                      : Lavf54.63.100
Writing library                          : Lavf54.63.100
COPYRIGHT                                : robbyrs

Video
ID                                       : 1
Format                                   : AVC
Format/Info                              : Advanced Video Codec
Format profile                           : [email protected]
Format settings, CABAC                   : Yes
Format settings, ReFrames                : 2 frames
Codec ID                                 : V_MPEG4/ISO/AVC
Duration                                 : 1h 27mn
Bit rate                                 : 1 290 Kbps
Width                                    : 720 pixels
Height                                   : 384 pixels
Display aspect ratio                     : 16:9
Frame rate mode                          : Variable
Frame rate                               : 23.976 fps
Color space                              : YUV
Chroma subsampling                       : 4:2:0
Bit depth                                : 8 bits
Scan type                                : Progressive
Bits/(Pixel*Frame)                       : 0.195
Stream size                              : 806 MiB (61%)
Title                                    : TbZ
Writing library                          : x264 core 130 r2273
Encoding settings                        : cabac=1 / ref=2 / deblock=1:0:0 / analyse=0x1:0x131 / me=hex / subme=7 / psy=1 / psy_rd=1.00:0.00 / mixed_ref=0 / me_range=16 / chroma_me=1 / trellis=1 / 8x8dct=0 / cqm=0 / deadzone=21,11 / fast_pskip=1 / chroma_qp_offset=-2 / threads=12 / lookahead_threads=2 / sliced_threads=0 / nr=0 / decimate=1 / interlaced=0 / bluray_compat=0 / constrained_intra=0 / bframes=3 / b_pyramid=0 / b_adapt=1 / b_bias=0 / direct=3 / weightb=1 / open_gop=0 / weightp=2 / keyint=230 / keyint_min=23 / scenecut=40 / intra_refresh=0 / rc_lookahead=40 / rc=abr / mbtree=1 / bitrate=1290 / ratetol=1.0 / qcomp=0.60 / qpmin=10 / qpmax=69 / qpstep=4 / vbv_maxrate=24000 / vbv_bufsize=24000 / nal_hrd=none / ip_ratio=1.40 / aq=1:1.00
Language                                 : Italian
Default                                  : Yes
Forced                                   : No
DURATION                                 : 01:27:12.227000000
NUMBER_OF_FRAMES                         : 125448
NUMBER_OF_BYTES                          : 2475866093
_STATISTICS_WRITING_APP                  : mkvmerge v8.1.0 ('Psychedelic Postcard') 64bit
_STATISTICS_WRITING_DATE_UTC             : 2015-07-16 12:45:23
_STATISTICS_TAGS                         : BPS DURATION NUMBER_OF_FRAMES NUMBER_OF_BYTES

Audio #1
ID                                       : 2
Format                                   : AC-3
Format/Info                              : Audio Coding 3
Mode extension                           : CM (complete main)
Codec ID                                 : A_AC3
Duration                                 : 1h 27mn
Bit rate mode                            : Constant
Bit rate                                 : 384 Kbps
Channel(s)                               : 6 channels
Channel positions                        : Front: L C R, Side: L R, LFE
Sampling rate                            : 48.0 KHz
Bit depth                                : 16 bits
Compression mode                         : Lossy
Delay relative to video                  : 1mn 5s
Stream size                              : 240 MiB (18%)
Language                                 : Italian
Default                                  : Yes
Forced                                   : No
DURATION                                 : 01:27:12.235000000
NUMBER_OF_FRAMES                         : 490522
NUMBER_OF_BYTES                          : 502294528
_STATISTICS_WRITING_APP                  : mkvmerge v8.1.0 ('Psychedelic Postcard') 64bit
_STATISTICS_WRITING_DATE_UTC             : 2015-07-16 12:45:23
_STATISTICS_TAGS                         : BPS DURATION NUMBER_OF_FRAMES NUMBER_OF_BYTES

Audio #2
ID                                       : 3
Format                                   : AC-3
Format/Info                              : Audio Coding 3
Mode extension                           : CM (complete main)
Codec ID                                 : A_AC3
Duration                                 : 1h 27mn
Bit rate mode                            : Constant
Bit rate                                 : 384 Kbps
Channel(s)                               : 6 channels
Channel positions                        : Front: L C R, Side: L R, LFE
Sampling rate                            : 48.0 KHz
Bit depth                                : 16 bits
Compression mode                         : Lossy
Delay relative to video                  : 1mn 5s
Stream size                              : 240 MiB (18%)
Language                                 : English
Default                                  : No
Forced                                   : No
DURATION                                 : 01:27:12.256000000
NUMBER_OF_FRAMES                         : 163508
NUMBER_OF_BYTES                          : 418580480
_STATISTICS_WRITING_APP                  : mkvmerge v8.1.0 ('Psychedelic Postcard') 64bit
_STATISTICS_WRITING_DATE_UTC             : 2015-07-16 12:45:23
_STATISTICS_TAGS                         : BPS DURATION NUMBER_OF_FRAMES NUMBER_OF_BYTES

Text #1
ID                                       : 4
Format                                   : VobSub
Codec ID                                 : S_VOBSUB
Codec ID/Info                            : The same subtitle format used on DVDs
Language                                 : Italian
Default                                  : No
Forced                                   : No
DURATION                                 : 01:26:07.510000000
NUMBER_OF_FRAMES                         : 1226
NUMBER_OF_BYTES                          : 4034814
_STATISTICS_WRITING_APP                  : mkvmerge v8.1.0 ('Psychedelic Postcard') 64bit
_STATISTICS_WRITING_DATE_UTC             : 2015-07-16 12:45:23
_STATISTICS_TAGS                         : BPS DURATION NUMBER_OF_FRAMES NUMBER_OF_BYTES

Text #2
ID                                       : 5
Format                                   : VobSub
Codec ID                                 : S_VOBSUB
Codec ID/Info                            : The same subtitle format used on DVDs
Language                                 : Italian
Default                                  : No
Forced                                   : No
DURATION                                 : 01:26:07.510000000
NUMBER_OF_FRAMES                         : 1226
NUMBER_OF_BYTES                          : 4034814
_STATISTICS_WRITING_APP                  : mkvmerge v8.1.0 ('Psychedelic Postcard') 64bit
_STATISTICS_WRITING_DATE_UTC             : 2015-07-16 12:45:23
_STATISTICS_TAGS                         : BPS DURATION NUMBER_OF_FRAMES NUMBER_OF_BYTES

Text #3
ID                                       : 6
Format                                   : VobSub
Codec ID                                 : S_VOBSUB
Codec ID/Info                            : The same subtitle format used on DVDs
Language                                 : English
Default                                  : No
Forced                                   : No
DURATION                                 : 01:17:57.392000000
NUMBER_OF_FRAMES                         : 1302
NUMBER_OF_BYTES                          : 4379775
_STATISTICS_WRITING_APP                  : mkvmerge v8.1.0 ('Psychedelic Postcard') 64bit
_STATISTICS_WRITING_DATE_UTC             : 2015-07-16 12:45:23
_STATISTICS_TAGS                         : BPS DURATION NUMBER_OF_FRAMES NUMBER_OF_BYTES

Menu
00:00:00.000                             : :00:00:00.000
00:04:02.701                             : :00:04:02.701
00:06:23.925                             : :00:06:23.925
00:11:38.323                             : :00:11:38.323
00:15:14.872                             : :00:15:14.872
00:18:27.231                             : :00:18:27.231
00:21:21.322                             : :00:21:21.322
00:25:11.635                             : :00:25:11.635
00:30:11.393                             : :00:30:11.393
00:35:00.765                             : :00:35:00.765
00:40:41.397                             : :00:40:41.397
00:46:10.393                             : :00:46:10.393
00:51:26.875                             : :00:51:26.875
00:56:25.674                             : :00:56:25.674
00:59:00.829                             : :00:59:00.829
01:04:51.638                             : :01:04:51.638
01:08:38.323                             : :01:08:38.323
01:12:33.683                             : :01:12:33.683
01:14:21.624                             : :01:14:21.624
01:18:00.217                             : :01:18:00.217



[/spoiler]

[/center]

Info: Per scaricare devi usare un client come uTorrent o Transmission
AnnounceURL
udp://tracker.coppersurfer.tk:6969/announce
Hash 45bed5cb9b540e240d5891a17ace207fade227f2
Peers seeds: 35 , leech: 5
Size 1.30 GB
Completato 737x
Aggiunto 11.06.17 - 05:06:46
Uploader   robbyrs
Votazione (Voti: 1)


Condividi questo bittorrent:


html/blog:


bbcode/forum:




Aggiungi Commento


counter