* Dettagli Torrent   globale  | Commenti (1) 


- Halloween - La notte delle streghe - 35th Anniversary(1978).H264.Italian.English.Ac3.5.1.sub.ita.iCV -


Download via torrent:
Categoria bittorrent BDRip
Descrizione
Halloween - La notte delle streghe - 35th Anniversary(197.H264.Italian.English.Ac3.5.1.sub.ita.iCV-MIRCrew

[center]by www.icv-crew.org


NO FOUND ONLY ORIGINAL RELEASE



My release is always in double track audio italian and Original audio
for select it use VLC or dvd player home
not use wmp

Halloween - La notte delle streghe - 35th Anniversary (197







Titolo originale Halloween
Lingua originale inglese
Paese di produzione Stati Uniti d'America
Anno 1978
Durata 91 min
Rapporto 2,35:1
Genere orrore, thriller
Regia John Carpenter
Soggetto John Carpenter, Debra Hill
Sceneggiatura John Carpenter, Debra Hill
Produttore Debra Hill
Produttore esecutivo Moustapha Akkad e Irwin Yablans
Casa di produzione Compass International Pictures e Falcon International Productions
Distribuzione (Italia) Pic
Fotografia Dean Cundey
Effetti speciali Conrad Rothmann
Musiche John Carpenter
Scenografia Tommy Lee Wallace
Costumi Beth Rodgers
Trucco Erica Ueland




   Jamie Lee Curtis: Laurie Strode
   Donald Pleasence: dott. Sam Loomis
   Nancy Loomis: Annie Brackett
   P.J. Soles: Lynda Van Der Klok
   Nick Castle: Michael Myers
   Tony Moran: Michael Myers senza maschera
   Charles Cyphers: sceriffo Leigh Brackett
   Kyle Richards: Lindsey Wallace
   Brian Andrews: Tommy Doyle
   John Michael Graham: Bob Simms, il fidanzato di Lynda
   Nancy Stephens: Marion Chambers
   Arthur Malet: custode del cimitero
   Will Sandin: Michael Myers a 6 anni




Michael Myers vive in manicomio dal 1963, quando all'età di 6 anni uccise a coltellate la sorella adolescente Judith. Il 30 ottobre 1978, la sera del suo trasferimento dal Manicomio di Smith's Grove, Michael ruba l'auto che lo avrebbe dovuto trasportare e fugge. Il dottor Sam Loomis, lo psichiatra che lo prese in cura in seguito all'omicidio,



Fifteen years after murdering his sister on Halloween night 1963, Michael Myers escapes from a mental hospital and returns to the small town of Haddonfield to kill again.  ... .  












[spoiler]
General
Unique ID                                : 134883765424189830446818642166797453683 (0x6579AB14ACA03D1CFDAB066B66164973)
Complete name                            : Halloween (197 35th Anniversary.H264.ita.eng.sub.ita.eng.iCV-MIRCrew.mkv
Format                                   : Matroska
Format version                           : Version 2
File size                                : 1.26 GiB
Duration                                 : 1h 27mn
Overall bit rate                         : 2 063 Kbps
Movie name                               : VISIT www.icv-crew.org
Encoded date                             : UTC 2016-09-20 03:50:29
Writing application                      : Lavf54.63.100
Writing library                          : Lavf54.63.100
COPYRIGHT                                : robbyrs

Video
ID                                       : 1
Format                                   : AVC
Format/Info                              : Advanced Video Codec
Format profile                           : [email protected]
Format settings, CABAC                   : Yes
Format settings, ReFrames                : 2 frames
Codec ID                                 : V_MPEG4/ISO/AVC
Duration                                 : 1h 27mn
Bit rate                                 : 1 290 Kbps
Width                                    : 720 pixels
Height                                   : 304 pixels
Display aspect ratio                     : 2.35:1
Original display aspect ratio            : 2.35:1
Frame rate mode                          : Variable
Frame rate                               : 25.000 fps
Color space                              : YUV
Chroma subsampling                       : 4:2:0
Bit depth                                : 8 bits
Scan type                                : Progressive
Bits/(Pixel*Frame)                       : 0.236
Stream size                              : 782 MiB (61%)
Title                                    : x264 | 9596 Kbps | 23.976 fps | 2.35:1
Writing library                          : x264 core 130 r2273
Encoding settings                        : cabac=1 / ref=2 / deblock=1:0:0 / analyse=0x1:0x131 / me=hex / subme=7 / psy=1 / psy_rd=1.00:0.00 / mixed_ref=0 / me_range=16 / chroma_me=1 / trellis=1 / 8x8dct=0 / cqm=0 / deadzone=21,11 / fast_pskip=1 / chroma_qp_offset=-2 / threads=12 / lookahead_threads=2 / sliced_threads=0 / nr=0 / decimate=1 / interlaced=0 / bluray_compat=0 / constrained_intra=0 / bframes=3 / b_pyramid=0 / b_adapt=1 / b_bias=0 / direct=3 / weightb=1 / open_gop=0 / weightp=2 / keyint=250 / keyint_min=25 / scenecut=40 / intra_refresh=0 / rc_lookahead=40 / rc=2pass / mbtree=1 / bitrate=1290 / ratetol=1.0 / qcomp=0.60 / qpmin=10 / qpmax=69 / qpstep=4 / cplxblur=20.0 / qblur=0.5 / vbv_maxrate=24000 / vbv_bufsize=24000 / nal_hrd=none / ip_ratio=1.40 / aq=1:1.00
Language                                 : Italian
Default                                  : Yes
Forced                                   : No

Audio #1
ID                                       : 2
Format                                   : AC-3
Format/Info                              : Audio Coding 3
Mode extension                           : CM (complete main)
Codec ID                                 : A_AC3
Duration                                 : 1h 27mn
Bit rate mode                            : Constant
Bit rate                                 : 384 Kbps
Channel(s)                               : 6 channels
Channel positions                        : Front: L C R, Side: L R, LFE
Sampling rate                            : 48.0 KHz
Bit depth                                : 16 bits
Compression mode                         : Lossy
Delay relative to video                  : 1mn 5s
Stream size                              : 240 MiB (19%)
Title                                    : Mux by M4iO | AC3 | 384 Kbps | 48 KHz | 6 chan
Language                                 : Italian
Default                                  : Yes
Forced                                   : No

Audio #2
ID                                       : 3
Format                                   : AC-3
Format/Info                              : Audio Coding 3
Mode extension                           : CM (complete main)
Codec ID                                 : A_AC3
Duration                                 : 1h 27mn
Bit rate mode                            : Constant
Bit rate                                 : 384 Kbps
Channel(s)                               : 6 channels
Channel positions                        : Front: L C R, Side: L R, LFE
Sampling rate                            : 48.0 KHz
Bit depth                                : 16 bits
Compression mode                         : Lossy
Delay relative to video                  : 1mn 5s
Stream size                              : 240 MiB (19%)
Title                                    : AC3 | 640 Kbps | 48 KHz | 6 chan
Language                                 : English
Default                                  : No
Forced                                   : No

Text #1
ID                                       : 4
Format                                   : ASS
Codec ID                                 : S_TEXT/ASS
Codec ID/Info                            : Advanced Sub Station Alpha
Compression mode                         : Lossless
Title                                    : -
Default                                  : Yes
Forced                                   : No

Text #2
ID                                       : 5
Format                                   : ASS
Codec ID                                 : S_TEXT/ASS
Codec ID/Info                            : Advanced Sub Station Alpha
Compression mode                         : Lossless
Language                                 : Italian
Default                                  : No
Forced                                   : No

Text #3
ID                                       : 6
Format                                   : ASS
Codec ID                                 : S_TEXT/ASS
Codec ID/Info                            : Advanced Sub Station Alpha
Compression mode                         : Lossless
Language                                 : English
Default                                  : No
Forced                                   : No

Menu
00:00:00.000                             : :00:00:00.000
00:06:43.354                             : :00:06:43.354
00:10:41.109                             : :00:10:41.109
00:19:06.026                             : :00:19:06.026
00:26:57.076                             : :00:26:57.076
00:33:20.125                             : :00:33:20.125
00:42:17.059                             : :00:42:17.059
00:52:03.052                             : :00:52:03.052
00:57:53.005                             : :00:57:53.005
01:06:23.023                             : :01:06:23.023
01:16:18.894                             : :01:16:18.894
01:25:04.150                             : :01:25:04.150



[/spoiler]

[/center]

Info: Per scaricare devi usare un client come uTorrent o Transmission
AnnounceURL
udp://tracker.coppersurfer.tk:6969/announce
Hash 5a037db71082efde7f78344547bd79d649247ca9
Peers seeds: 22 , leech: 7
Size 1.26 GB
Completato 582x
Aggiunto 11.06.17 - 04:06:30
Uploader   robbyrs
Votazione (Voti: 0)


Condividi questo bittorrent:


html/blog:


bbcode/forum:




Aggiungi Commento
Ultimi commenti
 pulipuli   
mitico
11/06 12.18
Tutti commenti (1)


counter