* Dettagli Torrent   globale  | Commenti (0) 


- Fuga da Los Angeles (1996).H264.Italian.English.Ac3.sub.ita.eng.iCV-MIRCrew -


Download via torrent:
Categoria bittorrent BDRip
Descrizione
Escape from L.A. - Fuga da Los Angeles (1996).H264.Italian.English.Ac3.sub.ita.eng.iCV-MIRCrew

[center]by www.icv-crew.org


NO FOUND ONLY ORIGINAL RELEASE



My release is always in double track audio italian and Original audio
for select it use VLC or dvd player home
not use wmp

Fuga da Los Angeles - Escape from L.A. (1996)

PRESENTI ANCHE i SOTTOTITOLI

ESTERNI IN SRT (ita/eng)







Titolo originale   Escape from L.A.
Paese di produzione   USA
Anno   1996
Durata   101 min
Rapporto   2,35 : 1
Genere   fantascienza, azione
Regia   John Carpenter
Soggetto   John Carpenter, Kurt Russell, Debra Hill, Nick Castle
Sceneggiatura   John Carpenter, Debra Hill, Kurt Russell
Produttore   Kurt Russell, Debra Hill
Fotografia   Gary B. Kibbe
Montaggio   Edward A. Warschilka
Effetti speciali   Dale Ettema, Bryan Sides, Mark Yuricich, Roy Goode
Musiche   John Carpenter, Shirley Walker
Scenografia   Lawrence G. Paull
Costumi   Robin Michel Bush
Trucco   Rick Baker



Kurt Russell: Jena Plissken
A.J. Langer: Utopia
Steve Buscemi: Eddie, "la mappa dei vip"
Georges Corraface: Cuervo Jones
Stacy Keach: comandante Malloy
Michelle Forbes: Brazen
Pam Grier: Hershe Las Palmas
Jeff Imada: Saigon Shadow
Cliff Robertson: presidente
Valeria Golino: Taslima
Peter Fonda: Pipeline
Leland Orser: Test Tube
Peter Jason: sergente in comando
Jordan Baker: capitano poliziotto
Bruce Campbell: chirurgo



Anno 2013: la figlia viziata del Presidente degli Stati Uniti si è unita al peruviano leader di Sendero Luminoso Cuervo Jones, rubando un telecomando in grado di riposizionare i satelliti orbitanti intorno alla Terra e di rendere inutilizzabile ogni congegno elettronico del pianeta. Jones e la sua banda si nascondono a Los Angeles: come avvenne per New York 25 anni prima, la città è divenuta, dopo il distacco della California dal resto del continente a causa del Big One, il terremoto più devastante e più temuto di tutti nell'area della Faglia di Sant'Andrea.............



Snake Plissken is once again called in by the United States government to recover a potential doomsday device from Los Angeles, now an autonomous island where undesirables are deported.














[spoiler]
General
Unique ID                                : 244994736182101694039122937668948359281 (0xB8504515BE724AC25982CD8A122A7871)
Complete name                            : Fuga da Los Angeles - Escape from L.A. (1996).H264.ita.eng.sub.ita.eng.iCV-MIRCrew.mkv
Format                                   : Matroska
Format version                           : Version 2
File size                                : 1.28 GiB
Duration                                 : 1h 40mn
Overall bit rate                         : 1 816 Kbps
Movie name                               : www.icv-crew.org
Encoded date                             : UTC 2017-05-13 15:36:33
Writing application                      : Lavf54.63.100
Writing library                          : Lavf54.63.100
COPYRIGHT                                : robbyrs

Video
ID                                       : 1
Format                                   : AVC
Format/Info                              : Advanced Video Codec
Format profile                           : [email protected]
Format settings, CABAC                   : Yes
Format settings, ReFrames                : 2 frames
Codec ID                                 : V_MPEG4/ISO/AVC
Duration                                 : 1h 40mn
Bit rate                                 : 1 300 Kbps
Width                                    : 720 pixels
Height                                   : 304 pixels
Display aspect ratio                     : 2.35:1
Original display aspect ratio            : 2.35:1
Frame rate mode                          : Variable
Frame rate                               : 23.976 fps
Color space                              : YUV
Chroma subsampling                       : 4:2:0
Bit depth                                : 8 bits
Scan type                                : Progressive
Bits/(Pixel*Frame)                       : 0.248
Stream size                              : 913 MiB (70%)
Writing library                          : x264 core 130 r2273
Encoding settings                        : cabac=1 / ref=2 / deblock=1:0:0 / analyse=0x1:0x131 / me=hex / subme=7 / psy=1 / psy_rd=1.00:0.00 / mixed_ref=0 / me_range=16 / chroma_me=1 / trellis=1 / 8x8dct=0 / cqm=0 / deadzone=21,11 / fast_pskip=1 / chroma_qp_offset=-2 / threads=12 / lookahead_threads=2 / sliced_threads=0 / nr=0 / decimate=1 / interlaced=0 / bluray_compat=0 / constrained_intra=0 / bframes=3 / b_pyramid=0 / b_adapt=1 / b_bias=0 / direct=3 / weightb=1 / open_gop=0 / weightp=2 / keyint=230 / keyint_min=23 / scenecut=40 / intra_refresh=0 / rc_lookahead=40 / rc=abr / mbtree=1 / bitrate=1300 / ratetol=1.0 / qcomp=0.60 / qpmin=10 / qpmax=69 / qpstep=4 / vbv_maxrate=24000 / vbv_bufsize=24000 / nal_hrd=none / ip_ratio=1.40 / aq=1:1.00
Language                                 : Italian
Default                                  : Yes
Forced                                   : No

Audio #1
ID                                       : 2
Format                                   : AC-3
Format/Info                              : Audio Coding 3
Mode extension                           : CM (complete main)
Codec ID                                 : A_AC3
Duration                                 : 1h 40mn
Bit rate mode                            : Constant
Bit rate                                 : 256 Kbps
Channel(s)                               : 2 channels
Channel positions                        : Front: L R
Sampling rate                            : 48.0 KHz
Bit depth                                : 16 bits
Compression mode                         : Lossy
Delay relative to video                  : 1mn 5s
Stream size                              : 184 MiB (14%)
Language                                 : Italian
Default                                  : Yes
Forced                                   : No

Audio #2
ID                                       : 3
Format                                   : AC-3
Format/Info                              : Audio Coding 3
Mode extension                           : CM (complete main)
Codec ID                                 : A_AC3
Duration                                 : 1h 40mn
Bit rate mode                            : Constant
Bit rate                                 : 256 Kbps
Channel(s)                               : 2 channels
Channel positions                        : Front: L R
Sampling rate                            : 48.0 KHz
Bit depth                                : 16 bits
Compression mode                         : Lossy
Delay relative to video                  : 1mn 5s
Stream size                              : 184 MiB (14%)
Language                                 : English
Default                                  : No
Forced                                   : No

Text #1
ID                                       : 4
Format                                   : ASS
Codec ID                                 : S_TEXT/ASS
Codec ID/Info                            : Advanced Sub Station Alpha
Compression mode                         : Lossless
Language                                 : Italian
Default                                  : No
Forced                                   : No

Text #2
ID                                       : 5
Format                                   : ASS
Codec ID                                 : S_TEXT/ASS
Codec ID/Info                            : Advanced Sub Station Alpha
Compression mode                         : Lossless
Language                                 : English
Default                                  : No
Forced                                   : No

Menu
00:00:00.000                             : :Chapter 01
00:08:00.000                             : :Chapter 02
00:16:00.000                             : :Chapter 03
00:24:00.000                             : :Chapter 04
00:32:00.000                             : :Chapter 05
00:40:00.000                             : :Chapter 06
00:48:00.000                             : :Chapter 07
00:56:00.000                             : :Chapter 08
01:04:00.000                             : :Chapter 09
01:12:00.000                             : :Chapter 10
01:38:00.000                             : :Chapter 14



[/spoiler]

[/center]

Info: Per scaricare devi usare un client come uTorrent o Transmission
AnnounceURL
udp://tracker.coppersurfer.tk:6969/announce
Hash 6b048cea472d6df99ecf344ac907b211f4da0ad8
Peers seeds: 8 , leech: 8
Size 1.28 GB
Completato 337x
Aggiunto 11.06.17 - 02:06:27
Uploader   robbyrs
Votazione (Voti: 0)


Condividi questo bittorrent:


html/blog:


bbcode/forum:




Aggiungi Commento


counter