* Dettagli Torrent   globale  | Commenti (0) 


- Oasis: Supersonic (2016).H264.English.Ac3.5.1.sub.ita.iCV-MIRCrew -


Download via torrent:
Categoria bittorrent BDRip
Descrizione
Oasis: Supersonic (2016).H264.English.Ac3.5.1.sub.ita.iCV-MIRCrew


[center]by www.icv-crew.org


NO FOUND ONLY ORIGINAL RELEASE



My release is always in double track audio italian and Original audio
for select it use VLC or dvd player home
not use wmp

Oasis: Supersonic (2016)







   DATA USCITA: 07 novembre 2016
   GENERE: Documentario, Musicale
   ANNO: 2016
   REGIA: Mat Whitecross

   MONTAGGIO: Paul Monaghan
   PRODUZIONE: Mint Pictures
   DISTRIBUZIONE: Lucky Red
   PAESE: Gran Bretagna
   DURATA: 122 Min




Nell'agosto del 1996, gli Oasis, una band indie proveniente dalle case popolari di Manchester, furono protagonisti di qualcosa mai visto prima. I loro concerti a Knebworth con un pubblico di 250.000 persone - e altri 2 milioni e mezzo di persone alla ricerca di biglietti - furono gli eventi più seguiti di quel periodo.



An in-depth look at the life and music of Manchester-based rock band, Oasis.











[spoiler]
General
Unique ID                                : 55510204574087045576571704155520270317 (0x29C2E063AB4933793A6508402C867FED)
Complete name                            : Oasis: Supersonic (2016).H264.Ac3-5.1.sub.ita.iCV-MIRCrew.mkv
Format                                   : Matroska
Format version                           : Version 2
File size                                : 1.43 GiB
Duration                                 : 1h 57mn
Overall bit rate                         : 1 743 Kbps
Encoded date                             : UTC 2017-05-30T16:58:52Z
Writing application                      : HandBrake 0.10.5 2016021100
Writing library                          : Lavf55.12.0

Video
ID                                       : 1
Format                                   : AVC
Format/Info                              : Advanced Video Codec
Format profile                           : [email protected]
Format settings, CABAC                   : Yes
Format settings, ReFrames                : 4 frames
Codec ID                                 : V_MPEG4/ISO/AVC
Duration                                 : 1h 57mn
Bit rate                                 : 1 290 Kbps
Width                                    : 720 pixels
Height                                   : 384 pixels
Display aspect ratio                     : 1.875
Frame rate mode                          : Variable
Frame rate                               : 25.000 fps
Color space                              : YUV
Chroma subsampling                       : 4:2:0
Bit depth                                : 8 bits
Scan type                                : Progressive
Bits/(Pixel*Frame)                       : 0.187
Stream size                              : 1.03 GiB (72%)
Writing library                          : x264 core 142 r2479 dd79a61
Encoding settings                        : cabac=1 / ref=1 / deblock=1:0:0 / analyse=0x1:0x111 / me=hex / subme=2 / psy=1 / psy_rd=1.00:0.00 / mixed_ref=0 / me_range=16 / chroma_me=1 / trellis=0 / 8x8dct=0 / cqm=0 / deadzone=21,11 / fast_pskip=1 / chroma_qp_offset=0 / threads=12 / lookahead_threads=3 / sliced_threads=0 / nr=0 / decimate=1 / interlaced=0 / bluray_compat=0 / constrained_intra=0 / bframes=3 / b_pyramid=2 / b_adapt=1 / b_bias=0 / direct=1 / weightb=1 / open_gop=0 / weightp=1 / keyint=250 / keyint_min=25 / scenecut=40 / intra_refresh=0 / rc_lookahead=10 / rc=abr / mbtree=1 / bitrate=1290 / ratetol=1.0 / qcomp=0.60 / qpmin=0 / qpmax=69 / qpstep=4 / vbv_maxrate=20000 / vbv_bufsize=25000 / nal_hrd=none / filler=0 / ip_ratio=1.40 / aq=1:1.00
Default                                  : Yes
Forced                                   : No
Color primaries                          : BT.470-6 System B, BT.470-6 System G, BT.601-6 625, BT.1358 625, BT.1700 625 PAL, BT.1700 625 SECAM
Transfer characteristics                 : BT.709-5, BT.1361
Matrix coefficients                      : BT.601-6 525, BT.1358 525, BT.1700 NTSC, SMPTE 170M

Audio
ID                                       : 2
Format                                   : AC-3
Format/Info                              : Audio Coding 3
Mode extension                           : CM (complete main)
Codec ID                                 : A_AC3
Duration                                 : 1h 57mn
Bit rate mode                            : Constant
Bit rate                                 : 448 Kbps
Channel(s)                               : 6 channels
Channel positions                        : Front: L C R, Side: L R, LFE
Sampling rate                            : 48.0 KHz
Bit depth                                : 16 bits
Compression mode                         : Lossy
Delay relative to video                  : 1mn 5s
Stream size                              : 375 MiB (26%)
Title                                    : Surround
Language                                 : English
Default                                  : Yes
Forced                                   : No

Text
ID                                       : 3
Format                                   : VobSub
Codec ID                                 : S_VOBSUB
Codec ID/Info                            : The same subtitle format used on DVDs
Language                                 : Italian
Default                                  : No
Forced                                   : No

Menu
00:00:00.000                             : :Chapter 1
00:09:52.560                             : :Chapter 2
00:19:06.760                             : :Chapter 3
00:30:09.760                             : :Chapter 4
00:39:27.720                             : :Chapter 5
00:48:39.040                             : :Chapter 6
00:58:37.960                             : :Chapter 7
01:08:22.240                             : :Chapter 8
01:18:16.280                             : :Chapter 9
01:28:15.000                             : :Chapter 10
01:37:08.560                             : :Chapter 11
01:47:08.880                             : :Chapter 12



[/spoiler]

[/center]

Info: Per scaricare devi usare un client come uTorrent o Transmission
AnnounceURL
udp://tracker.coppersurfer.tk:6969/announce
Hash bc797dfb95c53669e552da13ff92f6fb5b17f200
Peers seeds: 28 , leech: 6
Size 1.43 GB
Completato 408x
Aggiunto 09.06.17 - 13:06:18
Uploader   robbyrs
Votazione (Voti: 1)


Condividi questo bittorrent:


html/blog:


bbcode/forum:




Aggiungi Commento


counter