* Dettagli Torrent   globale  | Commenti (0) 


- Big Fat Liar 2 - Una bugia ancora più grossa a Seattle (2017).H264.Italian.English.Ac3.5.1.multisub. -


Download via torrent:
Categoria bittorrent BDRip
Descrizione
Bigger Fatter Liar - Big Fat Liar 2 - Una bugia ancora più grossa a Seattle (2017).H264.Italian.English.Ac3.5.1.multisub.iCV-MIRCrew

[center]by www.icv-crew.org


NO FOUND ONLY ORIGINAL RELEASE



My release is always in double track audio italian and Original audio
for select it use VLC or dvd player home
not use wmp

Big Fat Liar 2 - Bigger Fatter Liar (2017)

PRESENTI ANCHE i SOTTOTITOLI

ESTERNI  (ita/eng/ger/fre)







Regia: Ron Oliver
Paese: Stati Uniti
Anno: 2017
Produzione: Universal Pictures, 2017
Distribuzione: Universal Pictures
Durata: 91 min



Jodelle Ferland, Barry Bostwick, Paul McGillion



Kevin è un piccolo genio con la passione per i videogame. Quando il perfido Alan, noto produttore di videogame, ruba le sue idee per creare un nuovo e sensazionale gioco, Kevin e la sua amica Becca partono alla volta di Seattle per rendere la vita di Alan impossibile! ........



Kevin Shepard is a tech-savvy young genius who uses his intelligence to slack off. When greedy video game executive Larry Wolf gets a hold of his ideas for a video game, Kevin and his best ...















[spoiler]
General
Unique ID                                : 195057440743124253182964780853154492572 (0x92BEB254653B6ADEB06604405F97309C)
Complete name                            : Big Fat Liar 2 (2017).H264.ita.eng.multisub.iCV-MIRCrew.mkv
Format                                   : Matroska
Format version                           : Version 2
File size                                : 1.32 GiB
Duration                                 : 1h 30mn
Overall bit rate                         : 2 083 Kbps
Movie name                               : Big Fat Liar 2 (2017) DVD9.Title3
Encoded date                             : UTC 2017-04-27 20:00:47
Writing application                      : DVDFab 9.1.5.7
Writing library                          : libebml v0.7.8 + libmatroska v0.8.1

Video
ID                                       : 1
Format                                   : AVC
Format/Info                              : Advanced Video Codec
Format profile                           : [email protected]
Format settings, CABAC                   : Yes
Format settings, ReFrames                : 2 frames
Codec ID                                 : V_MPEG4/ISO/AVC
Duration                                 : 1h 30mn
Bit rate                                 : 1 273 Kbps
Width                                    : 720 pixels
Height                                   : 404 pixels
Display aspect ratio                     : 16:9
Frame rate                               : 25.000 fps
Color space                              : YUV
Chroma subsampling                       : 4:2:0
Bit depth                                : 8 bits
Scan type                                : Progressive
Bits/(Pixel*Frame)                       : 0.175
Stream size                              : 826 MiB (61%)
Writing library                          : x264 core
Default                                  : Yes
Forced                                   : No
Color primaries                          : BT.601-6 525, BT.1358 525, BT.1700 NTSC, SMPTE 170M
Transfer characteristics                 : BT.709-5, BT.1361
Matrix coefficients                      : BT.601-6 525, BT.1358 525, BT.1700 NTSC, SMPTE 170M

Audio #1
ID                                       : 2
Format                                   : AC-3
Format/Info                              : Audio Coding 3
Mode extension                           : CM (complete main)
Codec ID                                 : A_AC3
Duration                                 : 1h 30mn
Bit rate mode                            : Constant
Bit rate                                 : 384 Kbps
Channel(s)                               : 6 channels
Channel positions                        : Front: L C R, Side: L R, LFE
Sampling rate                            : 48.0 KHz
Bit depth                                : 16 bits
Compression mode                         : Lossy
Stream size                              : 249 MiB (18%)
Language                                 : Italian
Default                                  : Yes
Forced                                   : No

Audio #2
ID                                       : 3
Format                                   : AC-3
Format/Info                              : Audio Coding 3
Mode extension                           : CM (complete main)
Codec ID                                 : A_AC3
Duration                                 : 1h 30mn
Bit rate mode                            : Constant
Bit rate                                 : 384 Kbps
Channel(s)                               : 6 channels
Channel positions                        : Front: L C R, Side: L R, LFE
Sampling rate                            : 48.0 KHz
Bit depth                                : 16 bits
Compression mode                         : Lossy
Stream size                              : 249 MiB (18%)
Language                                 : English
Default                                  : No
Forced                                   : No

Text #1
ID                                       : 4
Format                                   : VobSub
Codec ID                                 : S_VOBSUB
Codec ID/Info                            : The same subtitle format used on DVDs
Language                                 : English
Default                                  : Yes
Forced                                   : No

Text #2
ID                                       : 5
Format                                   : VobSub
Codec ID                                 : S_VOBSUB
Codec ID/Info                            : The same subtitle format used on DVDs
Language                                 : French
Default                                  : No
Forced                                   : No

Text #3
ID                                       : 6
Format                                   : VobSub
Codec ID                                 : S_VOBSUB
Codec ID/Info                            : The same subtitle format used on DVDs
Language                                 : German
Default                                  : No
Forced                                   : No

Text #4
ID                                       : 7
Format                                   : VobSub
Codec ID                                 : S_VOBSUB
Codec ID/Info                            : The same subtitle format used on DVDs
Language                                 : Italian
Default                                  : No
Forced                                   : No

Text #5
ID                                       : 8
Format                                   : VobSub
Codec ID                                 : S_VOBSUB
Codec ID/Info                            : The same subtitle format used on DVDs
Language                                 : Italian
Default                                  : No
Forced                                   : No

Menu
00:00:00.000                             : en01)00:00:00:000
00:05:44.400                             : en02)00:05:44:400
00:08:46.560                             : en03)00:08:46:560
00:13:46.080                             : en04)00:13:46:080
00:19:22.400                             : en05)00:19:22:400
00:23:36.400                             : en06)00:23:36:400
00:29:11.720                             : en07)00:29:11:720
00:32:41.440                             : en000:32:41:440
00:38:11.000                             : en09)00:38:11:000
00:44:27.600                             : en10)00:44:27:600
00:48:02.120                             : en11)00:48:02:120
00:52:20.920                             : en12)00:52:20:920
00:56:12.200                             : en13)00:56:12:200
00:59:29.720                             : en14)00:59:29:720
01:03:28.200                             : en15)01:03:28:200
01:07:52.240                             : en16)01:07:52:240
01:12:37.280                             : en17)01:12:37:280
01:18:07.720                             : en101:18:07:720
01:24:12.480                             : en19)01:24:12:480
01:26:47.080                             : en20)01:26:47:080
01:30:39.400                             : en21)01:30:39:400


[/spoiler]

[/center]

Info: Per scaricare devi usare un client come uTorrent o Transmission
AnnounceURL
udp://tracker.coppersurfer.tk:6969/announce
Hash 571e7f6c7d9f2c936d167760df6d9fbaae9d3bb4
Peers seeds: 49 , leech: 10
Size 1.34 GB
Completato 833x
Aggiunto 09.06.17 - 09:06:32
Uploader   robbyrs
Votazione (Voti: 1)


Condividi questo bittorrent:


html/blog:


bbcode/forum:




Aggiungi Commento


counter