* Dettagli Torrent   globale  | Commenti (0) 


- Billy Lynn - Un giorno da eroe (2016).H264.Italian.English.Ac3.5.1.sub.ita.eng.iCV-MIRCrew -


Download via torrent:
Categoria bittorrent BDRip
Descrizione
Billy Lynn's Long Halftime Walk - Billy Lynn - Un giorno da eroe (2016).H264.Italian.English.Ac3.5.1.sub.ita.eng.iCV-MIRCrew

[center]



NO FOUND ONLY ORIGINAL RELEASE



My release is always in double track audio italian and Original audio
for select it use VLC or dvd player home
not use wmp

Billy Lynn - Un giorno da eroe - Billy Lynn's Long Halftime Walk (2016)

PRESENTI ANCHE i SOTTOTITOLI

ESTERNI IN SRT (ita/eng)







   DATA USCITA: 02 febbraio 2017
   GENERE: Drammatico, Guerra
   ANNO: 2016
   REGIA: Ang Lee
   SCENEGGIATURA: Jean-Christophe Castelli
   FOTOGRAFIA: John Toll
   MONTAGGIO: Tim Squyres
   MUSICHE: Jeff Danna, Mychael Danna
   PRODUZIONE: Bona Film Group, Dune Films, Film4, The Ink Factory, Marc Platt Productions, Studio 8, TriStar Pictures.
   DISTRIBUZIONE: Warner Bros. Pictures Italia
   PAESE: USA, Gran Bretagna
   DURATA: 113 Min
   FORMATO: 2D e 3D



Joe Alwyn, Kristen Stewart, Vin Diesel, Garrett Hedlund, Steve Martin, Chris Tucker, Beau Knapp



I soldati della squadra Bravo, di cui fa parte il 19enne Billy Lynn, hanno compiuto una coraggiosa azione di guerra in Iraq, immortalata per caso dalle telecamere di un tg. Trasformati di colpo in eroi nazionali, vengono richiamati in patria per due settimane di Victory Tour (interviste in tv, visita alla Casa Bianca.............



19-year-old Billy Lynn is brought home for a victory tour after a harrowing Iraq battle. Through flashbacks the film shows what really happened to his squad - contrasting the realities of war with America's perceptions. .















[spoiler]
General
Unique ID                                : 183381295836711895017088892296881457297 (0x89F5F3F08CB3543BED0DC1E7A8E74891)
Complete name                            : Billy Lynn - Un giorno da eroe (2016).H264.ita.eng.sub.ita.eng.iCV-MIRCrew.mkv
Format                                   : Matroska
Format version                           : Version 2
File size                                : 1.71 GiB
Duration                                 : 1h 52mn
Overall bit rate                         : 2 171 Kbps
Movie name                               : www.icv-crew.org
Encoded date                             : UTC 2017-05-31 20:38:39
Writing application                      : Lavf54.63.100
Writing library                          : Lavf54.63.100
COPYRIGHT                                : robbyrs

Video
ID                                       : 1
Format                                   : AVC
Format/Info                              : Advanced Video Codec
Format profile                           : [email protected]
Format settings, CABAC                   : Yes
Format settings, ReFrames                : 2 frames
Codec ID                                 : V_MPEG4/ISO/AVC
Duration                                 : 1h 52mn
Bit rate                                 : 1 290 Kbps
Width                                    : 720 pixels
Height                                   : 384 pixels
Display aspect ratio                     : 16:9
Frame rate mode                          : Variable
Frame rate                               : 23.976 fps
Color space                              : YUV
Chroma subsampling                       : 4:2:0
Bit depth                                : 8 bits
Scan type                                : Progressive
Bits/(Pixel*Frame)                       : 0.195
Stream size                              : 993 MiB (57%)
Writing library                          : x264 core 130 r2273
Encoding settings                        : cabac=1 / ref=2 / deblock=1:0:0 / analyse=0x1:0x131 / me=hex / subme=7 / psy=1 / psy_rd=1.00:0.00 / mixed_ref=0 / me_range=16 / chroma_me=1 / trellis=1 / 8x8dct=0 / cqm=0 / deadzone=21,11 / fast_pskip=1 / chroma_qp_offset=-2 / threads=12 / lookahead_threads=2 / sliced_threads=0 / nr=0 / decimate=1 / interlaced=0 / bluray_compat=0 / constrained_intra=0 / bframes=3 / b_pyramid=0 / b_adapt=1 / b_bias=0 / direct=3 / weightb=1 / open_gop=0 / weightp=2 / keyint=230 / keyint_min=23 / scenecut=40 / intra_refresh=0 / rc_lookahead=40 / rc=abr / mbtree=1 / bitrate=1290 / ratetol=1.0 / qcomp=0.60 / qpmin=10 / qpmax=69 / qpstep=4 / vbv_maxrate=24000 / vbv_bufsize=24000 / nal_hrd=none / ip_ratio=1.40 / aq=1:1.00
Language                                 : Italian
Default                                  : Yes
Forced                                   : No
DURATION                                 : 01:52:45.759000000
NUMBER_OF_FRAMES                         : 162216
NUMBER_OF_BYTES                          : 7185741261
_STATISTICS_WRITING_APP                  : mkvmerge v9.5.0 ('Quiet Fire') 32bit
_STATISTICS_WRITING_DATE_UTC             : 2017-05-28 18:36:34
_STATISTICS_TAGS                         : BPS DURATION NUMBER_OF_FRAMES NUMBER_OF_BYTES

Audio #1
ID                                       : 2
Format                                   : AC-3
Format/Info                              : Audio Coding 3
Mode extension                           : CM (complete main)
Codec ID                                 : A_AC3
Duration                                 : 1h 52mn
Bit rate mode                            : Constant
Bit rate                                 : 448 Kbps
Channel(s)                               : 6 channels
Channel positions                        : Front: L C R, Side: L R, LFE
Sampling rate                            : 48.0 KHz
Bit depth                                : 16 bits
Compression mode                         : Lossy
Delay relative to video                  : 1mn 5s
Stream size                              : 361 MiB (21%)
Title                                    : Ita. AC3 640 Kbps
Language                                 : Italian
Default                                  : No
Forced                                   : No
DURATION                                 : 01:52:45.792000000
NUMBER_OF_FRAMES                         : 211431
NUMBER_OF_BYTES                          : 541263360
_STATISTICS_WRITING_APP                  : mkvmerge v9.5.0 ('Quiet Fire') 32bit
_STATISTICS_WRITING_DATE_UTC             : 2017-05-28 18:36:34
_STATISTICS_TAGS                         : BPS DURATION NUMBER_OF_FRAMES NUMBER_OF_BYTES

Audio #2
ID                                       : 3
Format                                   : AC-3
Format/Info                              : Audio Coding 3
Mode extension                           : CM (complete main)
Codec ID                                 : A_AC3
Duration                                 : 1h 52mn
Bit rate mode                            : Constant
Bit rate                                 : 448 Kbps
Channel(s)                               : 6 channels
Channel positions                        : Front: L C R, Side: L R, LFE
Sampling rate                            : 48.0 KHz
Bit depth                                : 16 bits
Compression mode                         : Lossy
Delay relative to video                  : 1mn 5s
Stream size                              : 361 MiB (21%)
Title                                    : Eng. DTS 1510 Kbps
Language                                 : English
Default                                  : No
Forced                                   : No
DURATION                                 : 01:52:45.760000000
NUMBER_OF_FRAMES                         : 634290
NUMBER_OF_BYTES                          : 1276191480
_STATISTICS_WRITING_APP                  : mkvmerge v9.5.0 ('Quiet Fire') 32bit
_STATISTICS_WRITING_DATE_UTC             : 2017-05-28 18:36:34
_STATISTICS_TAGS                         : BPS DURATION NUMBER_OF_FRAMES NUMBER_OF_BYTES

Text #1
ID                                       : 4
Format                                   : ASS
Codec ID                                 : S_TEXT/ASS
Codec ID/Info                            : Advanced Sub Station Alpha
Compression mode                         : Lossless
Title                                    : Sub. Ita. Forced
Language                                 : Italian
Default                                  : Yes
Forced                                   : Yes
DURATION                                 : 01:34:45.805000000
NUMBER_OF_FRAMES                         : 12
NUMBER_OF_BYTES                          : 406
_STATISTICS_WRITING_APP                  : mkvmerge v9.5.0 ('Quiet Fire') 32bit
_STATISTICS_WRITING_DATE_UTC             : 2017-05-28 18:36:34
_STATISTICS_TAGS                         : BPS DURATION NUMBER_OF_FRAMES NUMBER_OF_BYTES

Text #2
ID                                       : 5
Format                                   : ASS
Codec ID                                 : S_TEXT/ASS
Codec ID/Info                            : Advanced Sub Station Alpha
Compression mode                         : Lossless
Title                                    : Sub. Ita.
Language                                 : Italian
Default                                  : No
Forced                                   : No
DURATION                                 : 01:45:35.454000000
NUMBER_OF_FRAMES                         : 1924
NUMBER_OF_BYTES                          : 67639
_STATISTICS_WRITING_APP                  : mkvmerge v9.5.0 ('Quiet Fire') 32bit
_STATISTICS_WRITING_DATE_UTC             : 2017-05-28 18:36:34
_STATISTICS_TAGS                         : BPS DURATION NUMBER_OF_FRAMES NUMBER_OF_BYTES

Text #3
ID                                       : 6
Format                                   : ASS
Codec ID                                 : S_TEXT/ASS
Codec ID/Info                            : Advanced Sub Station Alpha
Compression mode                         : Lossless
Title                                    : Sub. Eng.
Language                                 : English
Default                                  : No
Forced                                   : No
DURATION                                 : 01:45:24.110000000
NUMBER_OF_FRAMES                         : 1908
NUMBER_OF_BYTES                          : 69053
_STATISTICS_WRITING_APP                  : mkvmerge v9.5.0 ('Quiet Fire') 32bit
_STATISTICS_WRITING_DATE_UTC             : 2017-05-28 18:36:34
_STATISTICS_TAGS                         : BPS DURATION NUMBER_OF_FRAMES NUMBER_OF_BYTES

Text #4
ID                                       : 7
Format                                   : ASS
Codec ID                                 : S_TEXT/ASS
Codec ID/Info                            : Advanced Sub Station Alpha
Compression mode                         : Lossless
Title                                    : Sub. Eng. Not Hearing
Language                                 : English
Default                                  : No
Forced                                   : No
DURATION                                 : 01:45:53.514000000
NUMBER_OF_FRAMES                         : 2156
NUMBER_OF_BYTES                          : 76569
_STATISTICS_WRITING_APP                  : mkvmerge v9.5.0 ('Quiet Fire') 32bit
_STATISTICS_WRITING_DATE_UTC             : 2017-05-28 18:36:34
_STATISTICS_TAGS                         : BPS DURATION NUMBER_OF_FRAMES NUMBER_OF_BYTES

Menu
00:00:00.000                             : :00:00:00.000
00:06:05.865                             : :00:06:05.865
00:13:21.884                             : :00:13:21.884
00:20:11.293                             : :00:20:11.293
00:26:24.541                             : :00:26:24.541
00:31:10.410                             : :00:31:10.410
00:39:05.426                             : :00:39:05.426
00:48:51.929                             : :00:48:51.929
00:55:58.605                             : :00:55:58.605
01:04:18.354                             : :01:04:18.354
01:10:16.712                             : :01:10:16.712
01:17:14.630                             : :01:17:14.630
01:22:08.507                             : :01:22:08.507
01:29:13.265                             : :01:29:13.265
01:35:21.591                             : :01:35:21.591
01:42:52.458                             : :01:42:52.458




[/spoiler]

[/center]

Info: Per scaricare devi usare un client come uTorrent o Transmission
AnnounceURL
udp://tracker.coppersurfer.tk:6969/announce
Hash 955cfd6bec198feb1af9bc634a2f234478fc49ae
Peers seeds: 46 , leech: 17
Size 1.71 GB
Completato 987x
Aggiunto 09.06.17 - 08:06:12
Uploader   robbyrs
Votazione (Voti: 1)


Condividi questo bittorrent:


html/blog:


bbcode/forum:




Aggiungi Commento


counter