* Dettagli Torrent   globale  | Commenti (0) 


- Incarnate - Non potrai nasconderti (2016).H264.Italian.English.Ac3.5.1.sub.ita.iCV-MIRCrew -


Download via torrent:
Categoria bittorrent BDRip
Descrizione
Incarnate - Non potrai nasconderti (2016).H264.Italian.English.Ac3.5.1.sub.ita.iCV-MIRCrew


[center]by www.icv-crew.org


NO FOUND ONLY ORIGINAL RELEASE



My release is always in double track audio italian and Original audio
for select it use VLC or dvd player home
not use wmp

Incarnate - Non potrai nasconderti (2016)







Titolo originale Incarnate
Lingua originale inglese
Paese di produzione Stati Uniti d'America
Anno 2016
Durata 91 min
Genere orrore, thriller
Regia Brad Peyton
Sceneggiatura Ronnie Christensen
Produttore Jason Blum, Trevor Engelson, Michael Seitzman
Casa di produzione IM Global, Blumhouse
Fotografia Dana Gonzales
Montaggio Jonathan Chibnall, Todd E. Miller
Musiche Andrew Lockington




   Aaron Eckhart: Dr. Seth Ember
   Carice van Houten: Lindsay Sparrow
   David Mazouz: Cameron Sparrow
   Catalina Sandino Moreno: Camilla
   Keir O'Donnell: Oliver
   Emily Jackson: Riley
   Matt Nable: Dan Sparrow
   Tomas Arana: Felix
   Karolina Wydra: Anna Ember
   Emjay Anthony: Jake Ember




Seth Ember è uno scienziato dotato della rara capacità di esorcizzare le menti delle persone possedute. Quando gli viene affidato il caso di un adolescente particolarmente tormentato, rimane sconvolto nello scoprire che dentro di lui si annida lo stesso spirito maligno responsabile della morte dei suoi affetti più cari: sua moglie e suo figlio....................



A scientist with the ability to enter the subconscious minds of the possessed must save a young boy from the grips of a demon with powers never seen before, while facing the horrors of his past.















[spoiler]
General
Unique ID                                : 150181080158550297402188234055102060752 (0x70FBD2ED7480FC50C90095516DA558D0)
Complete name                            : Incarnate - Non potrai nasconderti (2016).H264.ita.eng.sub.ita.iCV-MIRCrew.mkv
Format                                   : Matroska
Format version                           : Version 2
File size                                : 1.33 GiB
Duration                                 : 1h 26mn
Overall bit rate                         : 2 194 Kbps
Movie name                               : www.icv-crew.org
Encoded date                             : UTC 2017-06-05 12:04:12
Writing application                      : Lavf54.63.100
Writing library                          : Lavf54.63.100
COPYRIGHT                                : robbyrs

Video
ID                                       : 1
Format                                   : AVC
Format/Info                              : Advanced Video Codec
Format profile                           : [email protected]
Format settings, CABAC                   : Yes
Format settings, ReFrames                : 2 frames
Codec ID                                 : V_MPEG4/ISO/AVC
Duration                                 : 1h 26mn
Bit rate                                 : 1 290 Kbps
Width                                    : 716 pixels
Height                                   : 300 pixels
Display aspect ratio                     : 2.40:1
Frame rate mode                          : Variable
Frame rate                               : 23.976 fps
Color space                              : YUV
Chroma subsampling                       : 4:2:0
Bit depth                                : 8 bits
Scan type                                : Progressive
Bits/(Pixel*Frame)                       : 0.250
Stream size                              : 777 MiB (57%)
Writing library                          : x264 core 130 r2273
Encoding settings                        : cabac=1 / ref=2 / deblock=1:0:0 / analyse=0x1:0x131 / me=hex / subme=7 / psy=1 / psy_rd=1.00:0.00 / mixed_ref=0 / me_range=16 / chroma_me=1 / trellis=1 / 8x8dct=0 / cqm=0 / deadzone=21,11 / fast_pskip=1 / chroma_qp_offset=-2 / threads=12 / lookahead_threads=2 / sliced_threads=0 / nr=0 / decimate=1 / interlaced=0 / bluray_compat=0 / constrained_intra=0 / bframes=3 / b_pyramid=0 / b_adapt=1 / b_bias=0 / direct=3 / weightb=1 / open_gop=0 / weightp=2 / keyint=230 / keyint_min=23 / scenecut=40 / intra_refresh=0 / rc_lookahead=40 / rc=abr / mbtree=1 / bitrate=1290 / ratetol=1.0 / qcomp=0.60 / qpmin=10 / qpmax=69 / qpstep=4 / vbv_maxrate=24000 / vbv_bufsize=24000 / nal_hrd=none / ip_ratio=1.40 / aq=1:1.00
Language                                 : Italian
Default                                  : Yes
Forced                                   : No
DURATION                                 : 01:26:38.235000000
NUMBER_OF_FRAMES                         : 124633
NUMBER_OF_BYTES                          : 6167467335
_STATISTICS_WRITING_APP                  : mkvmerge v9.5.0 ('Quiet Fire') 32bit
_STATISTICS_WRITING_DATE_UTC             : 2017-06-02 16:09:46
_STATISTICS_TAGS                         : BPS DURATION NUMBER_OF_FRAMES NUMBER_OF_BYTES

Audio #1
ID                                       : 2
Format                                   : AC-3
Format/Info                              : Audio Coding 3
Mode extension                           : CM (complete main)
Codec ID                                 : A_AC3
Duration                                 : 1h 26mn
Bit rate mode                            : Constant
Bit rate                                 : 448 Kbps
Channel(s)                               : 6 channels
Channel positions                        : Front: L C R, Side: L R, LFE
Sampling rate                            : 48.0 KHz
Bit depth                                : 16 bits
Compression mode                         : Lossy
Delay relative to video                  : 1mn 5s
Stream size                              : 278 MiB (20%)
Title                                    : Ita. AC3 640 Kbps
Language                                 : Italian
Default                                  : No
Forced                                   : No
DURATION                                 : 01:26:38.240000000
NUMBER_OF_FRAMES                         : 162445
NUMBER_OF_BYTES                          : 415859200
_STATISTICS_WRITING_APP                  : mkvmerge v9.5.0 ('Quiet Fire') 32bit
_STATISTICS_WRITING_DATE_UTC             : 2017-06-02 16:09:46
_STATISTICS_TAGS                         : BPS DURATION NUMBER_OF_FRAMES NUMBER_OF_BYTES

Audio #2
ID                                       : 3
Format                                   : AC-3
Format/Info                              : Audio Coding 3
Mode extension                           : CM (complete main)
Codec ID                                 : A_AC3
Duration                                 : 1h 26mn
Bit rate mode                            : Constant
Bit rate                                 : 448 Kbps
Channel(s)                               : 6 channels
Channel positions                        : Front: L C R, Side: L R, LFE
Sampling rate                            : 48.0 KHz
Bit depth                                : 16 bits
Compression mode                         : Lossy
Delay relative to video                  : 1mn 5s
Stream size                              : 278 MiB (20%)
Title                                    : Eng. DTS 1510 Kbps
Language                                 : English
Default                                  : No
Forced                                   : No
DURATION                                 : 01:26:38.219000000
NUMBER_OF_FRAMES                         : 487333
NUMBER_OF_BYTES                          : 980514064
_STATISTICS_WRITING_APP                  : mkvmerge v9.5.0 ('Quiet Fire') 32bit
_STATISTICS_WRITING_DATE_UTC             : 2017-06-02 16:09:46
_STATISTICS_TAGS                         : BPS DURATION NUMBER_OF_FRAMES NUMBER_OF_BYTES

Text #1
ID                                       : 4
Format                                   : ASS
Codec ID                                 : S_TEXT/ASS
Codec ID/Info                            : Advanced Sub Station Alpha
Compression mode                         : Lossless
Title                                    : Sub. Ita.
Language                                 : Italian
Default                                  : No
Forced                                   : No
DURATION                                 : 01:17:35.400000000
NUMBER_OF_FRAMES                         : 766
NUMBER_OF_BYTES                          : 26670
_STATISTICS_WRITING_APP                  : mkvmerge v9.5.0 ('Quiet Fire') 32bit
_STATISTICS_WRITING_DATE_UTC             : 2017-06-02 16:09:46
_STATISTICS_TAGS                         : BPS DURATION NUMBER_OF_FRAMES NUMBER_OF_BYTES

Text #2
ID                                       : 5
Format                                   : ASS
Codec ID                                 : S_TEXT/ASS
Codec ID/Info                            : Advanced Sub Station Alpha
Compression mode                         : Lossless
Title                                    : Sub. Ita. Non Udenti
Language                                 : Italian
Default                                  : No
Forced                                   : No
DURATION                                 : 01:17:52.041000000
NUMBER_OF_FRAMES                         : 808
NUMBER_OF_BYTES                          : 27632
_STATISTICS_WRITING_APP                  : mkvmerge v9.5.0 ('Quiet Fire') 32bit
_STATISTICS_WRITING_DATE_UTC             : 2017-06-02 16:09:46
_STATISTICS_TAGS                         : BPS DURATION NUMBER_OF_FRAMES NUMBER_OF_BYTES

Menu
00:00:00.000                             : :00:00:00.000
00:06:21.965                             : :00:06:21.965
00:12:31.542                             : :00:12:31.542
00:18:14.635                             : :00:18:14.635
00:22:37.898                             : :00:22:37.898
00:30:05.762                             : :00:30:05.762
00:34:41.329                             : :00:34:41.329
00:41:04.504                             : :00:41:04.504
00:49:09.947                             : :00:49:09.947
00:56:45.360                             : :00:56:45.360
01:09:26.746                             : :01:09:26.746
01:16:27.374                             : :01:16:27.374


[/spoiler]

[/center]

Info: Per scaricare devi usare un client come uTorrent o Transmission
AnnounceURL
udp://tracker.coppersurfer.tk:6969/announce
Hash 714f7047a4092a5c4eaa8cb034bf234e3d9e1cc0
Peers seeds: 96 , leech: 18
Size 1.33 GB
Completato 1475x
Aggiunto 08.06.17 - 11:06:50
Uploader   robbyrs
Votazione (Voti: 0)


Condividi questo bittorrent:


html/blog:


bbcode/forum:




Aggiungi Commento


counter