* Dettagli Torrent   globale  | Commenti (0) 


- Resident Evil: The Final Chapter (2016).H264.Italian.English.Ac3.5.1.sub.ita.eng.iCV-MIRCrew -


Download via torrent:
Categoria bittorrent BDRip
Descrizione
Resident Evil: The Final Chapter (2016).H264.Italian.English.Ac3.5.1.sub.ita.eng.iCV-MIRCrew


[center]by www.icv-crew.org


NO FOUND ONLY ORIGINAL RELEASE



My release is always in double track audio italian and Original audio
for select it use VLC or dvd player home
not use wmp

Resident Evil: The Final Chapter (2016)

PRESENTI ANCHE i SOTTOTITOLI

ESTERNI IN SRT (ita/eng)







   DATA USCITA: 16 febbraio 2017
   GENERE: Azione, Horror, Thriller
   ANNO: 2017
   REGIA: Paul W.S. Anderson
   SCENEGGIATURA: Paul W.S. Anderson
   FOTOGRAFIA: Glen MacPherson
   MONTAGGIO: Doobie White
   MUSICHE: Paul Haslinger
   PRODUZIONE: Capcom Company, Capcom Entertainment, Constantin Film International
   DISTRIBUZIONE: Warner Bros. Pictures
   PAESE: Germania, Australia, Canada, Francia
   DURATA: 106 Min



Milla Jovovich, Ali Larter, Iain Glen, William Levy, Ruby Rose, Shawn Roberts, Eoin Macken, Fraser James



A seguito degli eventi accaduti in Resident Evil Retribution, l'umanità è ridotta ai minimi termini dopo che Alice è stata tradita da Wesker a Washington D.C. Come unica sopravvissuta del gruppo che avrebbe dovuto combattere le orde di non morti, dovrà fare ritorno nel luogo in cui l'incubo ha avuto inizio - a Raccoon City................



Alice returns to where the nightmare began: The Hive in Raccoon City, where the Umbrella Corporation is gathering its forces for a final strike against the only remaining survivors of the apocalypse.














[spoiler]
General
Unique ID                                : 191072565845632083477612615110010686781 (0x8FBF3CD4181CA941BA37C786F36D4D3D)
Complete name                            : Resident Evil The Final Chapter (2016).H264.ita.eng.sub.ita.eng.iCV-MIRCrew.mkv
Format                                   : Matroska
Format version                           : Version 2
File size                                : 1.52 GiB
Duration                                 : 1h 46mn
Overall bit rate                         : 2 047 Kbps
Movie name                               : www.icv-crew.org
Encoded date                             : UTC 2017-06-04 07:29:31
Writing application                      : Lavf54.63.100
Writing library                          : Lavf54.63.100
COPYRIGHT                                : robbyrs

Video
ID                                       : 1
Format                                   : AVC
Format/Info                              : Advanced Video Codec
Format profile                           : [email protected]
Format settings, CABAC                   : Yes
Format settings, ReFrames                : 2 frames
Codec ID                                 : V_MPEG4/ISO/AVC
Duration                                 : 1h 46mn
Bit rate                                 : 1 290 Kbps
Width                                    : 720 pixels
Height                                   : 300 pixels
Display aspect ratio                     : 2.40:1
Frame rate mode                          : Variable
Frame rate                               : 23.976 fps
Color space                              : YUV
Chroma subsampling                       : 4:2:0
Bit depth                                : 8 bits
Scan type                                : Progressive
Bits/(Pixel*Frame)                       : 0.249
Stream size                              : 943 MiB (60%)
Writing library                          : x264 core 130 r2273
Encoding settings                        : cabac=1 / ref=2 / deblock=1:0:0 / analyse=0x1:0x131 / me=hex / subme=7 / psy=1 / psy_rd=1.00:0.00 / mixed_ref=0 / me_range=16 / chroma_me=1 / trellis=1 / 8x8dct=0 / cqm=0 / deadzone=21,11 / fast_pskip=1 / chroma_qp_offset=-2 / threads=12 / lookahead_threads=2 / sliced_threads=0 / nr=0 / decimate=1 / interlaced=0 / bluray_compat=0 / constrained_intra=0 / bframes=3 / b_pyramid=0 / b_adapt=1 / b_bias=0 / direct=3 / weightb=1 / open_gop=0 / weightp=2 / keyint=230 / keyint_min=23 / scenecut=40 / intra_refresh=0 / rc_lookahead=40 / rc=abr / mbtree=1 / bitrate=1290 / ratetol=1.0 / qcomp=0.60 / qpmin=10 / qpmax=69 / qpstep=4 / vbv_maxrate=24000 / vbv_bufsize=24000 / nal_hrd=none / ip_ratio=1.40 / aq=1:1.00
Language                                 : Italian
Default                                  : Yes
Forced                                   : No
DURATION                                 : 01:46:33.346000000
NUMBER_OF_FRAMES                         : 153287
NUMBER_OF_BYTES                          : 6812249685
_STATISTICS_WRITING_APP                  : mkvmerge v8.7.0 ('All of the above') 64bit
_STATISTICS_WRITING_DATE_UTC             : 2017-06-01 20:27:27
_STATISTICS_TAGS                         : BPS DURATION NUMBER_OF_FRAMES NUMBER_OF_BYTES

Audio #1
ID                                       : 2
Format                                   : AC-3
Format/Info                              : Audio Coding 3
Mode extension                           : CM (complete main)
Codec ID                                 : A_AC3
Duration                                 : 1h 46mn
Bit rate mode                            : Constant
Bit rate                                 : 384 Kbps
Channel(s)                               : 6 channels
Channel positions                        : Front: L C R, Side: L R, LFE
Sampling rate                            : 48.0 KHz
Bit depth                                : 16 bits
Compression mode                         : Lossy
Delay relative to video                  : 1mn 5s
Stream size                              : 293 MiB (19%)
Title                                    : AC3 ITA
Language                                 : Italian
Default                                  : Yes
Forced                                   : No
DURATION                                 : 01:46:33.152000000
NUMBER_OF_FRAMES                         : 199786
NUMBER_OF_BYTES                          : 306871296
_STATISTICS_WRITING_APP                  : mkvmerge v8.7.0 ('All of the above') 64bit
_STATISTICS_WRITING_DATE_UTC             : 2017-06-01 20:27:27
_STATISTICS_TAGS                         : BPS DURATION NUMBER_OF_FRAMES NUMBER_OF_BYTES

Audio #2
ID                                       : 3
Format                                   : AC-3
Format/Info                              : Audio Coding 3
Mode extension                           : CM (complete main)
Codec ID                                 : A_AC3
Duration                                 : 1h 46mn
Bit rate mode                            : Constant
Bit rate                                 : 384 Kbps
Channel(s)                               : 6 channels
Channel positions                        : Front: L C R, Side: L R, LFE
Sampling rate                            : 48.0 KHz
Bit depth                                : 16 bits
Compression mode                         : Lossy
Delay relative to video                  : 1mn 5s
Stream size                              : 293 MiB (19%)
Title                                    : AC3 ENG
Language                                 : English
Default                                  : No
Forced                                   : No
DURATION                                 : 01:46:33.408000000
NUMBER_OF_FRAMES                         : 199794
NUMBER_OF_BYTES                          : 511472640
_STATISTICS_WRITING_APP                  : mkvmerge v8.7.0 ('All of the above') 64bit
_STATISTICS_WRITING_DATE_UTC             : 2017-06-01 20:27:27
_STATISTICS_TAGS                         : BPS DURATION NUMBER_OF_FRAMES NUMBER_OF_BYTES

Text #1
ID                                       : 4
Format                                   : ASS
Codec ID                                 : S_TEXT/ASS
Codec ID/Info                            : Advanced Sub Station Alpha
Compression mode                         : Lossless
Title                                    : FORCED
Language                                 : Italian
Default                                  : Yes
Forced                                   : No
DURATION                                 : 01:11:28.831000000
NUMBER_OF_FRAMES                         : 3
NUMBER_OF_BYTES                          : 105
_STATISTICS_WRITING_APP                  : mkvmerge v8.7.0 ('All of the above') 64bit
_STATISTICS_WRITING_DATE_UTC             : 2017-06-01 20:27:27
_STATISTICS_TAGS                         : BPS DURATION NUMBER_OF_FRAMES NUMBER_OF_BYTES

Text #2
ID                                       : 5
Format                                   : ASS
Codec ID                                 : S_TEXT/ASS
Codec ID/Info                            : Advanced Sub Station Alpha
Compression mode                         : Lossless
Title                                    : FORCED
Language                                 : Italian
Default                                  : Yes
Forced                                   : No
DURATION                                 : 01:11:28.831000000
NUMBER_OF_FRAMES                         : 3
NUMBER_OF_BYTES                          : 105
_STATISTICS_WRITING_APP                  : mkvmerge v8.7.0 ('All of the above') 64bit
_STATISTICS_WRITING_DATE_UTC             : 2017-06-01 20:27:27
_STATISTICS_TAGS                         : BPS DURATION NUMBER_OF_FRAMES NUMBER_OF_BYTES

Text #3
ID                                       : 6
Format                                   : ASS
Codec ID                                 : S_TEXT/ASS
Codec ID/Info                            : Advanced Sub Station Alpha
Compression mode                         : Lossless
Title                                    : REGOLARI
Language                                 : Italian
Default                                  : No
Forced                                   : No
DURATION                                 : 01:45:09.643000000
NUMBER_OF_FRAMES                         : 702
NUMBER_OF_BYTES                          : 26237
_STATISTICS_WRITING_APP                  : mkvmerge v8.7.0 ('All of the above') 64bit
_STATISTICS_WRITING_DATE_UTC             : 2017-06-01 20:27:27
_STATISTICS_TAGS                         : BPS DURATION NUMBER_OF_FRAMES NUMBER_OF_BYTES

Text #4
ID                                       : 7
Format                                   : ASS
Codec ID                                 : S_TEXT/ASS
Codec ID/Info                            : Advanced Sub Station Alpha
Compression mode                         : Lossless
Title                                    : NON UDENTI
Language                                 : English
Default                                  : No
Forced                                   : No
DURATION                                 : 01:45:30.322000000
NUMBER_OF_FRAMES                         : 1199
NUMBER_OF_BYTES                          : 31111
_STATISTICS_WRITING_APP                  : mkvmerge v8.7.0 ('All of the above') 64bit
_STATISTICS_WRITING_DATE_UTC             : 2017-06-01 20:27:27
_STATISTICS_TAGS                         : BPS DURATION NUMBER_OF_FRAMES NUMBER_OF_BYTES

Menu
00:00:00.000                             : :00:00:00.000
00:05:39.673                             : :00:05:39.673
00:11:18.177                             : :00:11:18.177
00:17:00.102                             : :00:17:00.102
00:22:36.146                             : :00:22:36.146
00:27:21.932                             : :00:27:21.932
00:33:35.889                             : :00:33:35.889
00:40:43.816                             : :00:40:43.816
00:46:29.328                             : :00:46:29.328
00:53:11.980                             : :00:53:11.980
01:03:11.871                             : :01:03:11.871
01:10:41.070                             : :01:10:41.070
01:15:30.776                             : :01:15:30.776
01:22:51.008                             : :01:22:51.008
01:28:26.092                             : :01:28:26.092
01:35:00.653                             : :01:35:00.653



[/spoiler]

[/center]

Info: Per scaricare devi usare un client come uTorrent o Transmission
AnnounceURL
udp://tracker.coppersurfer.tk:6969/announce
Hash 759aa293147bf4386574d83c96f1b797d10e60f4
Peers seeds: 117 , leech: 35
Size 1.52 GB
Completato 1184x
Aggiunto 08.06.17 - 10:06:27
Uploader   robbyrs
Votazione (Voti: 0)


Condividi questo bittorrent:


html/blog:


bbcode/forum:




Aggiungi Commento


counter