* Dettagli Torrent   globale  | Commenti (0) 


- La memoria dell acqua (2015).H264.Italian.Spanish.Ac3.5.1.sub.ita.iCV-MIRCrew -


Download via torrent:
Categoria bittorrent BDRip
Descrizione
La memoria dell'acqua - El botón de nácar (2015).H264.Italian.Spanish.Ac3.5.1.sub.ita.iCV-MIRCrew

[center]by www.icv-crew.org


NO FOUND ONLY ORIGINAL RELEASE



My release is always in double track audio italian and Original audio
for select it use VLC or dvd player home
not use wmp

La memoria dell'acqua (2015)

invia immagini





   DATA USCITA: 28 aprile 2016
   GENERE: Documentario
   ANNO: 2016
   REGIA: Patricio Guzman
   PRODUZIONE: Atacama Productions, Valdivia Film, Mediapro
   DISTRIBUZIONE: I Wonder Pictures
   PAESE: Cile, Francia, Spagna
   DURATA: 82 Min



Un bottone di madreperla incrostato nella ruggine di una rotaia in fondo al mare: è una traccia dei desaparecidos di Villa Grimaldi a Santiago, il grande centro cileno di detenzione e tortura sotto la dittatura di Pinochet. Un fiume che scorre e il tintinnio delle cascate: è la canzone dell'acqua alla base della cultura dei Selknams, popolazione nativa sudamericana trucidata dai colonizzatori....................



The ocean contains the history of all humanity. The sea holds all the voices of the earth and those that come from outer space. Water receives impetus from the stars and transmits it to










hosting immagini




[spoiler]
General
Unique ID                                : 193341514414212251244371821819792658311 (0x917438A13DD61EA1B2DC753576AB0F87)
Complete name                            : La memoria dell'acqua (2015).H264.ita.spa.sub.ita.iCV-MIRCrew.mkv
Format                                   : Matroska
Format version                           : Version 2
File size                                : 1.07 GiB
Duration                                 : 1h 19mn
Overall bit rate                         : 1 934 Kbps
Movie name                               : La memoria dell'acqua (2015).H264.ita.spa.sub.ita.iCV-MIRCrew
Encoded date                             : UTC 2017-05-20 20:30:29
Writing application                      : DVDFab 9.1.5.7
Writing library                          : libebml v0.7.8 + libmatroska v0.8.1

Video
ID                                       : 1
Format                                   : AVC
Format/Info                              : Advanced Video Codec
Format profile                           : [email protected]
Format settings, CABAC                   : Yes
Format settings, ReFrames                : 2 frames
Codec ID                                 : V_MPEG4/ISO/AVC
Duration                                 : 1h 19mn
Bit rate                                 : 1 255 Kbps
Width                                    : 720 pixels
Height                                   : 404 pixels
Display aspect ratio                     : 16:9
Frame rate                               : 25.000 fps
Color space                              : YUV
Chroma subsampling                       : 4:2:0
Bit depth                                : 8 bits
Scan type                                : Progressive
Bits/(Pixel*Frame)                       : 0.173
Stream size                              : 712 MiB (65%)
Writing library                          : x264 core
Default                                  : Yes
Forced                                   : No
Color primaries                          : BT.601-6 525, BT.1358 525, BT.1700 NTSC, SMPTE 170M
Transfer characteristics                 : BT.709-5, BT.1361
Matrix coefficients                      : BT.601-6 525, BT.1358 525, BT.1700 NTSC, SMPTE 170M

Audio #1
ID                                       : 2
Format                                   : AC-3
Format/Info                              : Audio Coding 3
Mode extension                           : CM (complete main)
Codec ID                                 : A_AC3
Duration                                 : 1h 19mn
Bit rate mode                            : Constant
Bit rate                                 : 448 Kbps
Channel(s)                               : 6 channels
Channel positions                        : Front: L C R, Side: L R, LFE
Sampling rate                            : 48.0 KHz
Bit depth                                : 16 bits
Compression mode                         : Lossy
Stream size                              : 254 MiB (23%)
Language                                 : Italian
Default                                  : Yes
Forced                                   : No

Audio #2
ID                                       : 3
Format                                   : AC-3
Format/Info                              : Audio Coding 3
Mode extension                           : CM (complete main)
Codec ID                                 : A_AC3
Duration                                 : 1h 19mn
Bit rate mode                            : Constant
Bit rate                                 : 192 Kbps
Channel(s)                               : 2 channels
Channel positions                        : Front: L R
Sampling rate                            : 48.0 KHz
Bit depth                                : 16 bits
Compression mode                         : Lossy
Stream size                              : 109 MiB (10%)
Language                                 : Spanish
Default                                  : No
Forced                                   : No

Text #1
ID                                       : 4
Format                                   : VobSub
Codec ID                                 : S_VOBSUB
Codec ID/Info                            : The same subtitle format used on DVDs
Language                                 : Italian
Default                                  : Yes
Forced                                   : No

Text #2
ID                                       : 5
Format                                   : VobSub
Codec ID                                 : S_VOBSUB
Codec ID/Info                            : The same subtitle format used on DVDs
Language                                 : Italian
Default                                  : No
Forced                                   : No

Menu
00:00:00.000                             : en01)00:00:00:000
00:11:58.600                             : en02)00:11:58:600
00:19:51.920                             : en03)00:19:51:920
00:30:08.960                             : en04)00:30:08:960
00:38:57.400                             : en05)00:38:57:400
00:46:27.560                             : en06)00:46:27:560
00:56:22.920                             : en07)00:56:22:920
01:07:31.600                             : en001:07:31:600
01:16:51.240                             : en09)01:16:51:240



[/spoiler]

[/center]

Info: Per scaricare devi usare un client come uTorrent o Transmission
AnnounceURL
udp://tracker.coppersurfer.tk:6969/announce
Hash 8772b06895e0fb0bdd8296d6c9b11bb2c7f1941d
Peers seeds: 68 , leech: 7
Size 1.07 GB
Completato 777x
Aggiunto 27.05.17 - 12:05:30
Uploader   robbyrs
Votazione (Voti: 0)


Condividi questo bittorrent:


html/blog:


bbcode/forum:




Aggiungi Commento


counter