* Dettagli Torrent   globale  | Commenti (0) 


- The Hitcher (1986).H264.Italian.English.Ac3.multisub.iCV-MIRCrew -


Download via torrent:
Categoria bittorrent BDRip
Descrizione
The Hitcher (1986).H264.Italian.English.Ac3.multisub.iCV-MIRCrew

[center]by www.icv-crew.org


NO FOUND ONLY ORIGINAL RELEASE



My release is always in double track audio italian and Original audio
for select it use VLC or dvd player home
not use wmp

The Hitcher (1986)







Titolo originale The Hitcher
Paese di produzione USA
Anno 1986
Durata 96 min
Genere orrore, thriller
Regia Robert Harmon
Soggetto Eric Red
Sceneggiatura Eric Red
Fotografia John Seale
Montaggio Frank J. Urioste
Musiche Mark Isham



   C. Thomas Howell: Jim Halsey
   Rutger Hauer: John Ryder
   Jennifer Jason Leigh: Nash
   Jeffrey DeMunn: Capitano Esteridge



Il giovane Jim Halsey sta portando una Cadillac Seville del '75 da Chicago a San Diego, dove deve consegnarla al proprietario che ne ha richiesto il trasporto. Durante il viaggio, la stanchezza e un colpo di sonno che quasi gli causa un incidente lo spinge a offrire un passaggio a un autostoppista. Il misterioso personaggio, che si presenta come John Ryder (letteralmente, John il Cavaliere), dopo poco si rivela essere uno...............



A young man who escaped the clutches of a murderous hitch-hiker is subsequently stalked by the hitcher and framed for his crimes.













[spoiler]
General
Unique ID                                : 138096022086576198528608106182422559583 (0x67E4538FD9A689F48090268EFB03FB5F)
Complete name                            : The Hitcher (1986).H264.ita.eng.multisub.iCV-MIRCrew.mkv
Format                                   : Matroska
Format version                           : Version 2
File size                                : 1.22 GiB
Duration                                 : 1h 33mn
Overall bit rate                         : 1 869 Kbps
Encoded date                             : UTC 2017-05-27T08:16:08Z
Writing application                      : HandBrake 0.10.5 2016021100
Writing library                          : Lavf55.12.0

Video
ID                                       : 1
Format                                   : AVC
Format/Info                              : Advanced Video Codec
Format profile                           : [email protected]
Format settings, CABAC                   : Yes
Format settings, ReFrames                : 4 frames
Codec ID                                 : V_MPEG4/ISO/AVC
Duration                                 : 1h 33mn
Bit rate                                 : 1 290 Kbps
Width                                    : 688 pixels
Height                                   : 412 pixels
Display aspect ratio                     : 2.40:1
Original display aspect ratio            : 2.40:1
Frame rate mode                          : Variable
Frame rate                               : 25.000 fps
Color space                              : YUV
Chroma subsampling                       : 4:2:0
Bit depth                                : 8 bits
Scan type                                : Progressive
Bits/(Pixel*Frame)                       : 0.182
Stream size                              : 840 MiB (67%)
Writing library                          : x264 core 142 r2479 dd79a61
Encoding settings                        : cabac=1 / ref=1 / deblock=1:0:0 / analyse=0x1:0x111 / me=hex / subme=2 / psy=1 / psy_rd=1.00:0.00 / mixed_ref=0 / me_range=16 / chroma_me=1 / trellis=0 / 8x8dct=0 / cqm=0 / deadzone=21,11 / fast_pskip=1 / chroma_qp_offset=0 / threads=3 / lookahead_threads=1 / sliced_threads=0 / nr=0 / decimate=1 / interlaced=0 / bluray_compat=0 / constrained_intra=0 / bframes=3 / b_pyramid=2 / b_adapt=1 / b_bias=0 / direct=1 / weightb=1 / open_gop=0 / weightp=1 / keyint=250 / keyint_min=25 / scenecut=40 / intra_refresh=0 / rc_lookahead=10 / rc=abr / mbtree=1 / bitrate=1290 / ratetol=1.0 / qcomp=0.60 / qpmin=0 / qpmax=69 / qpstep=4 / vbv_maxrate=20000 / vbv_bufsize=25000 / nal_hrd=none / filler=0 / ip_ratio=1.40 / aq=1:1.00
Default                                  : Yes
Forced                                   : No
Color primaries                          : BT.470-6 System B, BT.470-6 System G, BT.601-6 625, BT.1358 625, BT.1700 625 PAL, BT.1700 625 SECAM
Transfer characteristics                 : BT.709-5, BT.1361
Matrix coefficients                      : BT.601-6 525, BT.1358 525, BT.1700 NTSC, SMPTE 170M

Audio #1
ID                                       : 2
Format                                   : AC-3
Format/Info                              : Audio Coding 3
Mode extension                           : CM (complete main)
Codec ID                                 : A_AC3
Duration                                 : 1h 33mn
Bit rate mode                            : Constant
Bit rate                                 : 192 Kbps
Channel(s)                               : 2 channels
Channel positions                        : Front: L R
Sampling rate                            : 48.0 KHz
Bit depth                                : 16 bits
Compression mode                         : Lossy
Delay relative to video                  : 1mn 5s
Stream size                              : 128 MiB (10%)
Title                                    : Stereo
Language                                 : Italian
Default                                  : Yes
Forced                                   : No

Audio #2
ID                                       : 3
Format                                   : AC-3
Format/Info                              : Audio Coding 3
Mode extension                           : CM (complete main)
Codec ID                                 : A_AC3
Duration                                 : 1h 33mn
Bit rate mode                            : Constant
Bit rate                                 : 384 Kbps
Channel(s)                               : 6 channels
Channel positions                        : Front: L C R, Side: L R, LFE
Sampling rate                            : 48.0 KHz
Bit depth                                : 16 bits
Compression mode                         : Lossy
Delay relative to video                  : 1mn 5s
Stream size                              : 257 MiB (21%)
Title                                    : Surround
Language                                 : English
Default                                  : No
Forced                                   : No

Text #1
ID                                       : 4
Format                                   : VobSub
Codec ID                                 : S_VOBSUB
Codec ID/Info                            : The same subtitle format used on DVDs
Language                                 : English
Default                                  : No
Forced                                   : No

Text #2
ID                                       : 5
Format                                   : VobSub
Codec ID                                 : S_VOBSUB
Codec ID/Info                            : The same subtitle format used on DVDs
Language                                 : German
Default                                  : No
Forced                                   : No

Text #3
ID                                       : 6
Format                                   : VobSub
Codec ID                                 : S_VOBSUB
Codec ID/Info                            : The same subtitle format used on DVDs
Language                                 : Spanish
Default                                  : No
Forced                                   : No

Text #4
ID                                       : 7
Format                                   : VobSub
Codec ID                                 : S_VOBSUB
Codec ID/Info                            : The same subtitle format used on DVDs
Language                                 : Italian
Default                                  : No
Forced                                   : No

Menu
00:00:00.000                             : :Chapter 1
00:03:28.320                             : :Chapter 2
00:05:56.360                             : :Chapter 3
00:07:24.360                             : :Chapter 4
00:10:10.920                             : :Chapter 5
00:13:10.200                             : :Chapter 6
00:16:33.720                             : :Chapter 7
00:18:53.640                             : :Chapter 8
00:22:37.680                             : :Chapter 9
00:31:07.200                             : :Chapter 10
00:33:58.000                             : :Chapter 11
00:36:14.440                             : :Chapter 12
00:40:30.320                             : :Chapter 13
00:46:13.440                             : :Chapter 14
00:50:25.000                             : :Chapter 15
00:54:54.160                             : :Chapter 16
00:57:28.120                             : :Chapter 17
01:01:34.160                             : :Chapter 18
01:04:00.360                             : :Chapter 19
01:07:28.320                             : :Chapter 20
01:11:22.200                             : :Chapter 21
01:17:11.720                             : :Chapter 22
01:22:13.920                             : :Chapter 23
01:31:00.200                             : :Chapter 24



[/spoiler]

[/center]

Info: Per scaricare devi usare un client come uTorrent o Transmission
AnnounceURL
udp://tracker.coppersurfer.tk:6969/announce
Hash 13db1cfd19b31cd03cbbde0008b9bda83f3e2aa4
Peers seeds: 30 , leech: 6
Size 1.22 GB
Completato 366x
Aggiunto 27.05.17 - 11:05:43
Uploader   robbyrs
Votazione (Voti: 0)


Condividi questo bittorrent:


html/blog:


bbcode/forum:




Aggiungi Commento


counter