* Dettagli Torrent   globale  | Commenti (0) 


- Principessa Mononoke (1997 - 2014).H264.Italian/Italian.Jpn.Ac3.5.1.sub.ita.eng.iCV-MIRCrew -


Download via torrent:
Categoria bittorrent Anime
Descrizione
Princess Mononoke - Mononoke-hime - Principessa Mononoke (1997 - 2014).H264.Italian/Italian.Jpn.Ac3.5.1.sub.ita.eng.iCV-MIRCrew

[center]



NO FOUND ONLY ORIGINAL RELEASE



My release is always in double track audio italian and Original audio
for select it use VLC or dvd player home
not use wmp

Princess Mononoke (????? Mononoke-hime (1997 - 2014)

Presente doppiaggio  originale BUENA VISTA e ridoppiaggio LUCKY RED

PRESENTI ANCHE i SOTTOTITOLI

ESTERNI  (ita/eng)







Riconoscimenti

   1997 - Animation Kobe
       "Miglior regia" ad Hayao Miyazaki
       "Feature Film Award"[59]
   1997 - Nikkan Sports Film Awards
       "Ishihara Yujiro Award"
       "Miglior regia" ad Hayao Miyazaki
   1997 - Hochi Film Awards
       "Premio speciale" ad Hayao Miyazaki
ecc..............

Titolo originale ?????
Mononoke-hime
Lingua originale giapponese
Paese di produzione Giappone
Anno 1997
Durata 134 min
Rapporto 1.85:1
Genere animazione, fantastico
Regia Hayao Miyazaki
Soggetto Hayao Miyazaki
Sceneggiatura Hayao Miyazaki
Produttore Toshio Suzuki
Produttore esecutivo Yasuyoshi Tokuma
Casa di produzione Studio Ghibli
Distribuzione (Italia) Buena Vista International
Fotografia Atsushi Okui
Musiche Joe Hisaishi
Art director Kazuo Oga, Niz? Yamamoto, Satoshi Kuroda, Naoya Tanaka, Y?z? Takeshige
Character design Hayao Miyazaki
Animatori Yoshifumi Kond?, Masahi Ando, Kitaro Kisaka
Sfondi Sadayuki Arai, Masako Osada, Kiyomi Ota, Hisae Saito, Hiroaki Sasaki, Seiki Tamura, Noboru Yoshida



Doppiatori italiani
Doppiaggio originale

   Alessandro Quarta: Ashitaka
   Laura Lenghi: San
   Alessandra Cassioli: Eboshi
   Marzia Ubaldi: Moro
   Glauco Onorato: Okkotonushi
   Paolo Buglioni: Gonza
   Giorgio Lopez: Jiko-B?
   Francesca Guadagno: Toki
   Mino Caprio: K?roku

Ridoppiaggio (2014)

   Lorenzo De Angelis: Ashitaka
   Joy Saltarelli: San; Kaya
   Alessandra Cassioli: Eboshi
   Ludovica Modugno: Moro
   Stefano Mondini: Divinità-lupo
   Sergio Fiorentini: Okkotonushi
   Angelo Nicotra: Gonza
   Pino Insegno: Jiko-B?
   Valeria Vidali: Toki
   Gianluca Crisafi: K?roku




Un gigantesco spirito-cinghiale, trasfigurato in un demone a causa del rancore, attacca un villaggio di Emishi[4]. Per salvare la propria gente il giovane principe Ashitaka è costretto ad ucciderlo, ma nello scontro viene ferito al braccio e infettato dal rancore dello spirito-cinghiale, che si manifesta come un maleficio. Nei resti del dio-cinghiale viene trovata una misteriosa palla di ferro: il dolore provocato da quel proiettile è la causa del rancore del dio e......................



On a journey to find the cure for a Tatarigami's curse, Ashitaka finds himself in the middle of a war between the forest gods and Tatara, a mining colony. In this quest he also meets San, the Mononoke Hime.









[spoiler]
General
Unique ID                                : 171663246274762162991657774322838722262 (0x8125237D977F031812FDFD1FDE88D6D6)
Complete name                            : Principessa Mononoke.H264.ita.ita.jpn.sub.ita.eng.iCV-MIRCrew.mkv
Format                                   : Matroska
Format version                           : Version 2
File size                                : 2.52 GiB
Duration                                 : 2h 13mn
Overall bit rate                         : 2 704 Kbps
Movie name                               : www.icv-crew.org
Encoded date                             : UTC 2017-05-25 20:57:38
Writing application                      : Lavf54.63.100
Writing library                          : Lavf54.63.100
COPYRIGHT                                : robbyrs

Video
ID                                       : 1
Format                                   : AVC
Format/Info                              : Advanced Video Codec
Format profile                           : [email protected]
Format settings, CABAC                   : Yes
Format settings, ReFrames                : 2 frames
Codec ID                                 : V_MPEG4/ISO/AVC
Duration                                 : 2h 13mn
Bit rate                                 : 1 350 Kbps
Width                                    : 720 pixels
Height                                   : 384 pixels
Display aspect ratio                     : 1.854
Original display aspect ratio            : 1.853
Frame rate mode                          : Variable
Frame rate                               : 24.000 fps
Color space                              : YUV
Chroma subsampling                       : 4:2:0
Bit depth                                : 8 bits
Scan type                                : Progressive
Bits/(Pixel*Frame)                       : 0.203
Stream size                              : 1.22 GiB (48%)
Title                                    : VIDEO x264
Writing library                          : x264 core 130 r2273
Encoding settings                        : cabac=1 / ref=2 / deblock=1:0:0 / analyse=0x1:0x131 / me=hex / subme=7 / psy=1 / psy_rd=1.00:0.00 / mixed_ref=0 / me_range=16 / chroma_me=1 / trellis=1 / 8x8dct=0 / cqm=0 / deadzone=21,11 / fast_pskip=1 / chroma_qp_offset=-2 / threads=12 / lookahead_threads=2 / sliced_threads=0 / nr=0 / decimate=1 / interlaced=0 / bluray_compat=0 / constrained_intra=0 / bframes=3 / b_pyramid=0 / b_adapt=1 / b_bias=0 / direct=3 / weightb=1 / open_gop=0 / weightp=2 / keyint=240 / keyint_min=24 / scenecut=40 / intra_refresh=0 / rc_lookahead=40 / rc=abr / mbtree=1 / bitrate=1350 / ratetol=1.0 / qcomp=0.60 / qpmin=10 / qpmax=69 / qpstep=4 / vbv_maxrate=24000 / vbv_bufsize=24000 / nal_hrd=none / ip_ratio=1.40 / aq=1:1.00
Default                                  : Yes
Forced                                   : No
DURATION                                 : 02:13:12.292000000
NUMBER_OF_FRAMES                         : 191815
NUMBER_OF_BYTES                          : 4848184223
_STATISTICS_WRITING_APP                  : mkvmerge v7.3.0 ('Nouages') 64bit built on Oct 22 2014 18:53:34
_STATISTICS_WRITING_DATE_UTC             : 2014-11-02 17:31:34
_STATISTICS_TAGS                         : BPS DURATION NUMBER_OF_FRAMES NUMBER_OF_BYTES

Audio #1
ID                                       : 2
Format                                   : AC-3
Format/Info                              : Audio Coding 3
Mode extension                           : CM (complete main)
Codec ID                                 : A_AC3
Duration                                 : 2h 13mn
Bit rate mode                            : Constant
Bit rate                                 : 448 Kbps
Channel(s)                               : 6 channels
Channel positions                        : Front: L C R, Side: L R, LFE
Sampling rate                            : 48.0 KHz
Bit depth                                : 16 bits
Compression mode                         : Lossy
Delay relative to video                  : 1mn 5s
Stream size                              : 427 MiB (17%)
Title                                    : AC3 ITA 5.1 LUCKY RED (2014)
Language                                 : Italian
Default                                  : No
Forced                                   : No
DURATION                                 : 02:13:12.416000000
NUMBER_OF_FRAMES                         : 249763
NUMBER_OF_BYTES                          : 639393280
_STATISTICS_WRITING_APP                  : mkvmerge v7.3.0 ('Nouages') 64bit built on Oct 22 2014 18:53:34
_STATISTICS_WRITING_DATE_UTC             : 2014-11-02 17:31:34
_STATISTICS_TAGS                         : BPS DURATION NUMBER_OF_FRAMES NUMBER_OF_BYTES

Audio #2
ID                                       : 3
Format                                   : AC-3
Format/Info                              : Audio Coding 3
Mode extension                           : CM (complete main)
Codec ID                                 : A_AC3
Duration                                 : 2h 13mn
Bit rate mode                            : Constant
Bit rate                                 : 448 Kbps
Channel(s)                               : 6 channels
Channel positions                        : Front: L C R, Side: L R, LFE
Sampling rate                            : 48.0 KHz
Bit depth                                : 16 bits
Compression mode                         : Lossy
Delay relative to video                  : 1mn 5s
Stream size                              : 427 MiB (17%)
Title                                    : AC3 ITA 5.1 BUENA VISTA (2000)
Language                                 : Italian
Default                                  : No
Forced                                   : No
DURATION                                 : 02:13:12.416000000
NUMBER_OF_FRAMES                         : 249763
NUMBER_OF_BYTES                          : 447575296
_STATISTICS_WRITING_APP                  : mkvmerge v7.3.0 ('Nouages') 64bit built on Oct 22 2014 18:53:34
_STATISTICS_WRITING_DATE_UTC             : 2014-11-02 17:31:34
_STATISTICS_TAGS                         : BPS DURATION NUMBER_OF_FRAMES NUMBER_OF_BYTES

Audio #3
ID                                       : 4
Format                                   : AC-3
Format/Info                              : Audio Coding 3
Mode extension                           : CM (complete main)
Codec ID                                 : A_AC3
Duration                                 : 2h 13mn
Bit rate mode                            : Constant
Bit rate                                 : 448 Kbps
Channel(s)                               : 6 channels
Channel positions                        : Front: L C R, Side: L R, LFE
Sampling rate                            : 48.0 KHz
Bit depth                                : 16 bits
Compression mode                         : Lossy
Delay relative to video                  : 1mn 5s
Stream size                              : 427 MiB (17%)
Title                                    : AC3 JAP 5.1 (2014)
Language                                 : Japanese
Default                                  : No
Forced                                   : No
DURATION                                 : 02:13:12.384000000
NUMBER_OF_FRAMES                         : 249762
NUMBER_OF_BYTES                          : 639390720
_STATISTICS_WRITING_APP                  : mkvmerge v7.3.0 ('Nouages') 64bit built on Oct 22 2014 18:53:34
_STATISTICS_WRITING_DATE_UTC             : 2014-11-02 17:31:34
_STATISTICS_TAGS                         : BPS DURATION NUMBER_OF_FRAMES NUMBER_OF_BYTES

Text #1
ID                                       : 5
Format                                   : VobSub
Codec ID                                 : S_VOBSUB
Codec ID/Info                            : The same subtitle format used on DVDs
Title                                    : DIALOGHI ITA
Language                                 : Italian
Default                                  : No
Forced                                   : No
DURATION                                 : 02:13:10.232000000
NUMBER_OF_FRAMES                         : 1398
NUMBER_OF_BYTES                          : 11708375
_STATISTICS_WRITING_APP                  : mkvmerge v7.3.0 ('Nouages') 64bit built on Oct 22 2014 18:53:34
_STATISTICS_WRITING_DATE_UTC             : 2014-11-02 17:31:34
_STATISTICS_TAGS                         : BPS DURATION NUMBER_OF_FRAMES NUMBER_OF_BYTES

Text #2
ID                                       : 6
Format                                   : VobSub
Codec ID                                 : S_VOBSUB
Codec ID/Info                            : The same subtitle format used on DVDs
Title                                    : DIALOGHI ITA
Language                                 : Italian
Default                                  : No
Forced                                   : No
DURATION                                 : 02:13:10.232000000
NUMBER_OF_FRAMES                         : 1398
NUMBER_OF_BYTES                          : 11708375
_STATISTICS_WRITING_APP                  : mkvmerge v7.3.0 ('Nouages') 64bit built on Oct 22 2014 18:53:34
_STATISTICS_WRITING_DATE_UTC             : 2014-11-02 17:31:34
_STATISTICS_TAGS                         : BPS DURATION NUMBER_OF_FRAMES NUMBER_OF_BYTES

Menu
00:00:00.000                             : :00:00:00.000
00:10:38.417                             : :00:10:38.417
00:21:09.833                             : :00:21:09.833
00:32:51.625                             : :00:32:51.625
00:44:13.708                             : :00:44:13.708
00:53:59.542                             : :00:53:59.542
01:05:01.625                             : :01:05:01.625
01:17:19.000                             : :01:17:19.000
01:27:18.208                             : :01:27:18.208
01:38:55.417                             : :01:38:55.417
01:48:49.833                             : :01:48:49.833
02:00:33.833                             : :02:00:33.833



[/spoiler]

[/center]

Info: Per scaricare devi usare un client come uTorrent o Transmission
AnnounceURL
udp://tracker.coppersurfer.tk:6969/announce
Hash f4e1c76473aacafcb09ab8c5be701de84185acd3
Peers seeds: 18 , leech: 9
Size 2.53 GB
Completato 295x
Aggiunto 27.05.17 - 03:05:27
Uploader   robbyrs
Votazione (Voti: 0)


Condividi questo bittorrent:


html/blog:


bbcode/forum:




Aggiungi Commento


counter