* Dettagli Torrent   globale  | Commenti (0) 


- Tommaso (2016) versione integrale.H264.Italian.Ac3.5.1.iCV-MIRCrew -


Download via torrent:
Categoria bittorrent BDRip
Descrizione
Tommaso (2016) versione integrale.H264.Italian.Ac3.5.1.iCV-MIRCrew

[center]by www.icv-crew.org


NO FOUND ONLY ORIGINAL RELEASE



My release is always in double track audio italian and Original audio
for select it use VLC or dvd player home
not use wmp

Tommaso (2016) versione integrale








   DATA USCITA: 08 settembre 2016
   GENERE: Drammatico
   ANNO: 2016
   REGIA: Kim Rossi Stuart
   SCENEGGIATURA: Kim Rossi Stuart, Federico Starnone
   FOTOGRAFIA: Gian Filippo Corticelli
   MONTAGGIO: Marco Spoletini
   PRODUZIONE: Palomar, Rai Cinema
   DISTRIBUZIONE: 01 Distribution
   PAESE: Italia
   DURATA: 112 Min



Kim Rossi Stuart, Cristiana Capotondi, Camilla Diana, Jasmine Trinca, Dagmar Lassander, Serra Ylmaz, Edoardo Pesce, Renato Scarpa, Alessandro Genovesi



Dopo una lunga relazione, Tommaso riesce a farsi lasciare da Chiara, la sua compagna. Ora ad attenderlo pensa ci sia una sconfinata libertà e innumerevoli avventure. E' un attore giovane, bello, gentile e romantico ma oscilla perennemente tra slanci e resistenze e presto si rende conto di essere libero solo di ripetere sempre lo stesso copione...............



Tommaso has just left his first wife but he will meet a new person who will change everything in his life.














[spoiler]
General
Unique ID                                : 275147719841227949522447002302306386329 (0xCEFF85F57EC3C828770A23B306C90199)
Complete name                            : Tommaso (2016).H264.ita.iCV-MIRCrew.mkv
Format                                   : Matroska
Format version                           : Version 2
File size                                : 1.37 GiB
Duration                                 : 1h 52mn
Overall bit rate                         : 1 732 Kbps
Movie name                               : www.icv-crew.org
Encoded date                             : UTC 2017-05-04 16:03:04
Writing application                      : Lavf54.63.100
Writing library                          : Lavf54.63.100
COPYRIGHT                                : robbyrs

Video
ID                                       : 1
Format                                   : AVC
Format/Info                              : Advanced Video Codec
Format profile                           : [email protected]
Format settings, CABAC                   : Yes
Format settings, ReFrames                : 2 frames
Codec ID                                 : V_MPEG4/ISO/AVC
Duration                                 : 1h 52mn
Bit rate                                 : 1 290 Kbps
Width                                    : 720 pixels
Height                                   : 384 pixels
Display aspect ratio                     : 16:9
Frame rate mode                          : Variable
Frame rate                               : 24.000 fps
Color space                              : YUV
Chroma subsampling                       : 4:2:0
Bit depth                                : 8 bits
Scan type                                : Progressive
Bits/(Pixel*Frame)                       : 0.194
Stream size                              : 1 009 MiB (72%)
Writing library                          : x264 core 130 r2273
Encoding settings                        : cabac=1 / ref=2 / deblock=1:0:0 / analyse=0x1:0x131 / me=hex / subme=7 / psy=1 / psy_rd=1.00:0.00 / mixed_ref=0 / me_range=16 / chroma_me=1 / trellis=1 / 8x8dct=0 / cqm=0 / deadzone=21,11 / fast_pskip=1 / chroma_qp_offset=-2 / threads=12 / lookahead_threads=2 / sliced_threads=0 / nr=0 / decimate=1 / interlaced=0 / bluray_compat=0 / constrained_intra=0 / bframes=3 / b_pyramid=0 / b_adapt=1 / b_bias=0 / direct=3 / weightb=1 / open_gop=0 / weightp=2 / keyint=240 / keyint_min=24 / scenecut=40 / intra_refresh=0 / rc_lookahead=40 / rc=abr / mbtree=1 / bitrate=1290 / ratetol=1.0 / qcomp=0.60 / qpmin=10 / qpmax=69 / qpstep=4 / vbv_maxrate=24000 / vbv_bufsize=24000 / nal_hrd=none / ip_ratio=1.40 / aq=1:1.00
Default                                  : Yes
Forced                                   : No
DURATION                                 : 01:52:50.084000000
NUMBER_OF_FRAMES                         : 162482
NUMBER_OF_BYTES                          : 8291285568
_STATISTICS_WRITING_APP                  : mkvmerge v9.7.1 ('Pandemonium') 32bit
_STATISTICS_WRITING_DATE_UTC             : 2017-01-05 21:14:53
_STATISTICS_TAGS                         : BPS DURATION NUMBER_OF_FRAMES NUMBER_OF_BYTES

Audio
ID                                       : 2
Format                                   : AC-3
Format/Info                              : Audio Coding 3
Mode extension                           : CM (complete main)
Codec ID                                 : A_AC3
Duration                                 : 1h 52mn
Bit rate mode                            : Constant
Bit rate                                 : 448 Kbps
Channel(s)                               : 6 channels
Channel positions                        : Front: L C R, Side: L R, LFE
Sampling rate                            : 48.0 KHz
Bit depth                                : 16 bits
Compression mode                         : Lossy
Delay relative to video                  : 1mn 5s
Stream size                              : 362 MiB (26%)
Language                                 : Italian
Default                                  : No
Forced                                   : No
DURATION                                 : 01:52:50.080000000
NUMBER_OF_FRAMES                         : 211565
NUMBER_OF_BYTES                          : 541606400
_STATISTICS_WRITING_APP                  : mkvmerge v9.7.1 ('Pandemonium') 32bit
_STATISTICS_WRITING_DATE_UTC             : 2017-01-05 21:14:53
_STATISTICS_TAGS                         : BPS DURATION NUMBER_OF_FRAMES NUMBER_OF_BYTES

Menu
00:00:00.000                             : :00:00:00.000
00:11:21.958                             : :00:11:21.958
00:19:12.125                             : :00:19:12.125
00:24:48.208                             : :00:24:48.208
00:32:36.833                             : :00:32:36.833
00:42:10.500                             : :00:42:10.500
00:51:33.833                             : :00:51:33.833
01:00:58.042                             : :01:00:58.042
01:07:32.583                             : :01:07:32.583
01:15:15.750                             : :01:15:15.750
01:23:05.375                             : :01:23:05.375
01:32:20.417                             : :01:32:20.417


[/spoiler]

[/center]

Info: Per scaricare devi usare un client come uTorrent o Transmission
AnnounceURL
udp://tracker.coppersurfer.tk:6969/announce
Hash 93f9c0080840d3ce6324fe5fd95cff26925873af
Peers seeds: 139 , leech: 7
Size 1.37 GB
Completato 2470x
Aggiunto 25.05.17 - 09:05:46
Uploader   robbyrs
Votazione (Voti: 2)


Condividi questo bittorrent:


html/blog:


bbcode/forum:




Aggiungi Commento


counter