* Dettagli Torrent   globale  | Commenti (0) 


- Stardust Memories (1980).H264.Italian.English.Ac3.sub.ita.eng.iCV-MIRCrew -


Download via torrent:
Categoria bittorrent BDRip
Descrizione
Stardust Memories (1980).H264.Italian.English.Ac3.sub.ita.eng.iCV-MIRCrew


[center]by www.icv-crew.org


NO FOUND ONLY ORIGINAL RELEASE



My release is always in double track audio italian and Original audio
for select it use VLC or dvd player home
not use wmp

Stardust Memories (1980)

PRESENTI ANCHE i SOTTOTITOLI

ESTERNI IN SRT (ita/eng)







Titolo originale Stardust Memories
Paese di produzione Stati Uniti
Anno 1980
Durata 91 min
Dati tecnici B/N
Genere commedia
Regia Woody Allen
Soggetto Woody Allen
Sceneggiatura Woody Allen
Produttore Robert Greenhut
Produttore esecutivo Jack Rollins, Charles H. Joffe
Fotografia Gordon Willis
Montaggio Susan E. Morse
Costumi Santo Loquasto




   Woody Allen: Sandy Bates
   Charlotte Rampling: Dorrie
   Jessica Harper: Daisy
   Marie-Christine Barrault: Isobel
   Tony Roberts: Tony
   Daniel Stern: attore
   Amy Wright: Shelley
   Helen Hanft: Vivian Orkin
   John Rothman: Jack Abel
   Gabrielle Strasun: Charlotte Ames




Un regista comico di successo, Sandy Bates, è in crisi esistenziale: non riesce a mediare la transitorietà del mondo e cerca di esprimere questo in un film ermetico che i suoi produttori cercano in tutti i modi di rendere più commerciale. Costretto a partecipare per un week-end a una rassegna di tutti i suoi film,.........



While attending a retrospective of his work, a filmmaker recalls his life and his loves: the inspirations for his films.  













[spoiler]
General
Unique ID                                : 134035280932647906666197198166086834619 (0x64D64190C4F0D8923FBC9B99D35ED9BB)
Complete name                            : Stardust Memories (1980).ita.eng.sub.ita.eng.iCV-MIRCrew.mkv
Format                                   : Matroska
Format version                           : Version 2
File size                                : 1.03 GiB
Duration                                 : 1h 28mn
Overall bit rate                         : 1 655 Kbps
Movie name                               : www.icv-crew.org
Encoded date                             : UTC 2016-12-24 12:04:23
Writing application                      : Lavf54.63.100
Writing library                          : Lavf54.63.100
COPYRIGHT                                : robbyrs

Video
ID                                       : 1
Format                                   : AVC
Format/Info                              : Advanced Video Codec
Format profile                           : [email protected]
Format settings, CABAC                   : Yes
Format settings, ReFrames                : 2 frames
Codec ID                                 : V_MPEG4/ISO/AVC
Duration                                 : 1h 28mn
Bit rate                                 : 1 290 Kbps
Width                                    : 688 pixels
Height                                   : 368 pixels
Display aspect ratio                     : 16:9
Original display aspect ratio            : 16:9
Frame rate mode                          : Variable
Frame rate                               : 23.976 fps
Color space                              : YUV
Chroma subsampling                       : 4:2:0
Bit depth                                : 8 bits
Scan type                                : Progressive
Bits/(Pixel*Frame)                       : 0.213
Stream size                              : 786 MiB (75%)
Title                                    : Stardust Memories (1980).ita.eng.sub.ita.eng.iCV-MIRCrew
Writing library                          : x264 core 130 r2273
Encoding settings                        : cabac=1 / ref=2 / deblock=1:0:0 / analyse=0x1:0x131 / me=hex / subme=7 / psy=1 / psy_rd=1.00:0.00 / mixed_ref=0 / me_range=16 / chroma_me=1 / trellis=1 / 8x8dct=0 / cqm=0 / deadzone=21,11 / fast_pskip=1 / chroma_qp_offset=-2 / threads=12 / lookahead_threads=2 / sliced_threads=0 / nr=0 / decimate=1 / interlaced=0 / bluray_compat=0 / constrained_intra=0 / bframes=3 / b_pyramid=0 / b_adapt=1 / b_bias=0 / direct=3 / weightb=1 / open_gop=0 / weightp=2 / keyint=230 / keyint_min=23 / scenecut=40 / intra_refresh=0 / rc_lookahead=40 / rc=abr / mbtree=1 / bitrate=1290 / ratetol=1.0 / qcomp=0.60 / qpmin=10 / qpmax=69 / qpstep=4 / vbv_maxrate=24000 / vbv_bufsize=24000 / nal_hrd=none / ip_ratio=1.40 / aq=1:1.00
Language                                 : Italian
Default                                  : Yes
Forced                                   : No

Audio #1
ID                                       : 2
Format                                   : AC-3
Format/Info                              : Audio Coding 3
Mode extension                           : CM (complete main)
Codec ID                                 : A_AC3
Duration                                 : 1h 28mn
Bit rate mode                            : Constant
Bit rate                                 : 192 Kbps
Channel(s)                               : 1 channel
Channel positions                        : Front: C
Sampling rate                            : 48.0 KHz
Bit depth                                : 16 bits
Compression mode                         : Lossy
Delay relative to video                  : 1mn 5s
Stream size                              : 122 MiB (12%)
Title                                    : Italiano AC3 1.0 192Kbps
Language                                 : Italian
Default                                  : Yes
Forced                                   : No

Audio #2
ID                                       : 3
Format                                   : AC-3
Format/Info                              : Audio Coding 3
Mode extension                           : CM (complete main)
Codec ID                                 : A_AC3
Duration                                 : 1h 28mn
Bit rate mode                            : Constant
Bit rate                                 : 192 Kbps
Channel(s)                               : 1 channel
Channel positions                        : Front: C
Sampling rate                            : 48.0 KHz
Bit depth                                : 16 bits
Compression mode                         : Lossy
Delay relative to video                  : 1mn 5s
Stream size                              : 122 MiB (12%)
Title                                    : English AC3 1.0 192Kbps
Language                                 : Italian
Default                                  : No
Forced                                   : No

Text #1
ID                                       : 4
Format                                   : ASS
Codec ID                                 : S_TEXT/ASS
Codec ID/Info                            : Advanced Sub Station Alpha
Compression mode                         : Lossless
Title                                    : Italiano
Language                                 : Italian
Default                                  : No
Forced                                   : No

Text #2
ID                                       : 5
Format                                   : ASS
Codec ID                                 : S_TEXT/ASS
Codec ID/Info                            : Advanced Sub Station Alpha
Compression mode                         : Lossless
Title                                    : English
Language                                 : English
Default                                  : No
Forced                                   : No

Menu
00:00:00.000                             : :00:00:00.000
00:12:19.489                             : :00:12:19.489
00:22:38.440                             : :00:22:38.440
00:35:24.789                             : :00:35:24.789
00:44:34.213                             : :00:44:34.213
00:55:06.470                             : :00:55:06.470
01:07:00.391                             : :01:07:00.391
01:18:31.290                             : :01:18:31.290
01:25:12.774                             : :01:25:12.774


[/spoiler]

[/center]

Info: Per scaricare devi usare un client come uTorrent o Transmission
AnnounceURL
udp://tracker.coppersurfer.tk:6969/announce
Hash b29790dfd50d762dab9d0f4303fc4164d9799d05
Peers seeds: 10 , leech: 3
Size 1.03 GB
Completato 208x
Aggiunto 23.05.17 - 10:05:45
Uploader   robbyrs
Votazione (Voti: 0)


Condividi questo bittorrent:


html/blog:


bbcode/forum:




Aggiungi Commento


counter