* Dettagli Torrent   globale  | Commenti (0) 


- Sleepless - il giustiziere (2017).H264.Italian.English.Ac3.5.1.sub.ita.iCV-MIRCrew -


Download via torrent:
Categoria bittorrent BDRip
Descrizione
Sleepless - il giustiziere (2017).H264.Italian.English.Ac3.5.1.sub.ita.iCV-MIRCrew


[center]by www.icv-crew.org


NO FOUND ONLY ORIGINAL RELEASE



My release is always in double track audio italian and Original audio
for select it use VLC or dvd player home
not use wmp

Sleepless il giustiziere (2017)

PRESENTI ANCHE i SOTTOTITOLI

ESTERNI IN SRT (ita)







Paese di produzione Stati Uniti d'America
Anno 2017
Durata 95 min
Genere azione, poliziesco, thriller
Regia Baran bo Odar
Sceneggiatura Andrea Berloff
Produttore Roy Lee, Adam Stone
Produttore esecutivo Tom Ortenberg, Peter Lawson, Marco Cherqui, Lauranne Bourrachot, Deepak Nayar, Nik Bower, Alex Foster, John Powers Middleton, Judd Payne, Jeremiah Samuels
Casa di produzione Open Road Films (II), Riverstone Pictures, Vertigo Entertainment
Distribuzione (Italia) Notorious Pictures
Fotografia Mihai Malaimare Jr.
Montaggio Robert Rzesacz
Musiche Michael Kamm
Scenografia Tim Grimes




   Jamie Foxx: Vincent Downs
   Michelle Monaghan: Jennifer Bryant
   Scoot McNairy: Rob Novak
   Dermot Mulroney: Stanley Rubino
   David Harbour: Doug Dennison
   Tip "T.I." Harris: Sean Cass
   Gabrielle Union: Dena Smith
   Octavius J. Johnson: Thomas Downs




Vincent Downs, tenente sotto copertura della polizia di Las Vegas, si ritrova accidentalmente coinvolto nella sparizione di una partita di droga che attira contro di lui l'ira di due boss criminali. ....................



A cop with a connection to the criminal underworld scours a nightclub in search of his kidnapped son.











hosting immagini




[spoiler]
General
Unique ID                                : 128169610631267812140423491041571401223 (0x606C91B107CF282D24270076BB9C6E07)
Complete name                            : Sleepless il giustiziere (2017).H264.ita.eng.sub.ita.iCV-MIRCrew.mkv
Format                                   : Matroska
Format version                           : Version 2
File size                                : 1.46 GiB
Duration                                 : 1h 35mn
Overall bit rate                         : 2 188 Kbps
Movie name                               : www.icv-crew.org
Encoded date                             : UTC 2017-05-20 21:10:44
Writing application                      : Lavf54.63.100
Writing library                          : Lavf54.63.100
COPYRIGHT                                : robbyrs

Video
ID                                       : 1
Format                                   : AVC
Format/Info                              : Advanced Video Codec
Format profile                           : [email protected]
Format settings, CABAC                   : Yes
Format settings, ReFrames                : 2 frames
Codec ID                                 : V_MPEG4/ISO/AVC
Duration                                 : 1h 35mn
Bit rate                                 : 1 300 Kbps
Width                                    : 720 pixels
Height                                   : 300 pixels
Display aspect ratio                     : 2.40:1
Frame rate mode                          : Variable
Frame rate                               : 23.976 fps
Color space                              : YUV
Chroma subsampling                       : 4:2:0
Bit depth                                : 8 bits
Scan type                                : Progressive
Bits/(Pixel*Frame)                       : 0.251
Stream size                              : 851 MiB (57%)
Writing library                          : x264 core 130 r2273
Encoding settings                        : cabac=1 / ref=2 / deblock=1:0:0 / analyse=0x1:0x131 / me=hex / subme=7 / psy=1 / psy_rd=1.00:0.00 / mixed_ref=0 / me_range=16 / chroma_me=1 / trellis=1 / 8x8dct=0 / cqm=0 / deadzone=21,11 / fast_pskip=1 / chroma_qp_offset=-2 / threads=12 / lookahead_threads=2 / sliced_threads=0 / nr=0 / decimate=1 / interlaced=0 / bluray_compat=0 / constrained_intra=0 / bframes=3 / b_pyramid=0 / b_adapt=1 / b_bias=0 / direct=3 / weightb=1 / open_gop=0 / weightp=2 / keyint=230 / keyint_min=23 / scenecut=40 / intra_refresh=0 / rc_lookahead=40 / rc=abr / mbtree=1 / bitrate=1300 / ratetol=1.0 / qcomp=0.60 / qpmin=10 / qpmax=69 / qpstep=4 / vbv_maxrate=24000 / vbv_bufsize=24000 / nal_hrd=none / ip_ratio=1.40 / aq=1:1.00
Language                                 : Italian
Default                                  : No
Forced                                   : No
DURATION                                 : 01:35:12.550000000
NUMBER_OF_FRAMES                         : 136964
NUMBER_OF_BYTES                          : 7136201560
_STATISTICS_WRITING_APP                  : mkvmerge v8.7.0 ('All of the above') 64bit
_STATISTICS_WRITING_DATE_UTC             : 2017-05-17 20:37:03
_STATISTICS_TAGS                         : BPS DURATION NUMBER_OF_FRAMES NUMBER_OF_BYTES

Audio #1
ID                                       : 2
Format                                   : AC-3
Format/Info                              : Audio Coding 3
Mode extension                           : CM (complete main)
Codec ID                                 : A_AC3
Duration                                 : 1h 35mn
Bit rate mode                            : Constant
Bit rate                                 : 448 Kbps
Channel(s)                               : 6 channels
Channel positions                        : Front: L C R, Side: L R, LFE
Sampling rate                            : 48.0 KHz
Bit depth                                : 16 bits
Compression mode                         : Lossy
Delay relative to video                  : 1mn 5s
Stream size                              : 305 MiB (20%)
Title                                    : AC3 ITA
Language                                 : Italian
Default                                  : No
Forced                                   : No
DURATION                                 : 01:35:17.536000000
NUMBER_OF_FRAMES                         : 178673
NUMBER_OF_BYTES                          : 457402880
_STATISTICS_WRITING_APP                  : mkvmerge v8.7.0 ('All of the above') 64bit
_STATISTICS_WRITING_DATE_UTC             : 2017-05-17 20:37:03
_STATISTICS_TAGS                         : BPS DURATION NUMBER_OF_FRAMES NUMBER_OF_BYTES

Audio #2
ID                                       : 3
Format                                   : AC-3
Format/Info                              : Audio Coding 3
Mode extension                           : CM (complete main)
Codec ID                                 : A_AC3
Duration                                 : 1h 35mn
Bit rate mode                            : Constant
Bit rate                                 : 448 Kbps
Channel(s)                               : 6 channels
Channel positions                        : Front: L C R, Side: L R, LFE
Sampling rate                            : 48.0 KHz
Bit depth                                : 16 bits
Compression mode                         : Lossy
Delay relative to video                  : 1mn 5s
Stream size                              : 305 MiB (20%)
Title                                    : AC3 ENG
Language                                 : English
Default                                  : No
Forced                                   : No
DURATION                                 : 01:35:17.536000000
NUMBER_OF_FRAMES                         : 178673
NUMBER_OF_BYTES                          : 457402880
_STATISTICS_WRITING_APP                  : mkvmerge v8.7.0 ('All of the above') 64bit
_STATISTICS_WRITING_DATE_UTC             : 2017-05-17 20:37:03
_STATISTICS_TAGS                         : BPS DURATION NUMBER_OF_FRAMES NUMBER_OF_BYTES

Text #1
ID                                       : 4
Format                                   : ASS
Codec ID                                 : S_TEXT/ASS
Codec ID/Info                            : Advanced Sub Station Alpha
Compression mode                         : Lossless
Title                                    : FORCED
Language                                 : Italian
Default                                  : Yes
Forced                                   : No
DURATION                                 : 00:22:04.742000000
NUMBER_OF_FRAMES                         : 3
NUMBER_OF_BYTES                          : 71
_STATISTICS_WRITING_APP                  : mkvmerge v8.7.0 ('All of the above') 64bit
_STATISTICS_WRITING_DATE_UTC             : 2017-05-17 20:37:03
_STATISTICS_TAGS                         : BPS DURATION NUMBER_OF_FRAMES NUMBER_OF_BYTES

Text #2
ID                                       : 5
Format                                   : ASS
Codec ID                                 : S_TEXT/ASS
Codec ID/Info                            : Advanced Sub Station Alpha
Compression mode                         : Lossless
Title                                    : REGULAR
Language                                 : Italian
Default                                  : No
Forced                                   : No
DURATION                                 : 01:27:55.566000000
NUMBER_OF_FRAMES                         : 923
NUMBER_OF_BYTES                          : 30807
_STATISTICS_WRITING_APP                  : mkvmerge v8.7.0 ('All of the above') 64bit
_STATISTICS_WRITING_DATE_UTC             : 2017-05-17 20:37:03
_STATISTICS_TAGS                         : BPS DURATION NUMBER_OF_FRAMES NUMBER_OF_BYTES

Menu
00:00:00.000                             : :00:00:00.000
00:07:05.342                             : :00:07:05.342
00:14:28.201                             : :00:14:28.201
00:20:13.838                             : :00:20:13.838
00:29:27.099                             : :00:29:27.099
00:39:02.590                             : :00:39:02.590
00:50:56.804                             : :00:50:56.804
00:59:52.756                             : :00:59:52.756
01:08:53.129                             : :01:08:53.129
01:16:19.950                             : :01:16:19.950
01:23:27.706                             : :01:23:27.706


[/spoiler]

[/center]

Info: Per scaricare devi usare un client come uTorrent o Transmission
AnnounceURL
udp://tracker.coppersurfer.tk:6969/announce
Hash b4b92ff9e9cb00c91886a8f82424716efc6ae450
Peers seeds: 282 , leech: 56
Size 1.46 GB
Completato 3341x
Aggiunto 22.05.17 - 08:05:21
Uploader   robbyrs
Votazione (Voti: 0)


Condividi questo bittorrent:


html/blog:


bbcode/forum:




Aggiungi Commento


counter