* Dettagli Torrent   globale  | Commenti (0) 


- Mississippi Grind (2015).H264.Italian.English.Ac3.5.1.sub.ita.eng.iCV-MIRCrew -


Download via torrent:
Categoria bittorrent BDRip
Descrizione
Mississippi Grind (2015).H264.Italian.English.Ac3.5.1.sub.ita.eng.iCV-MIRCrew


[center]by www.icv-crew.org


NO FOUND ONLY ORIGINAL RELEASE



My release is always in double track audio italian and Original audio
for select it use VLC or dvd player home
not use wmp

Mississippi Grind (2015)

PRESENTI ANCHE i SOTTOTITOLI

ESTERNI IN SRT (ita/eng)







Titolo originale:   Mississippi Grind
Conosciuto anche come:  
Nazione:   U.S.A.
Anno:   2015
Genere:   Drammatico
Durata:   108'
Regia:   Anna Boden, Ryan Fleck



Ryan Reynolds, Sienna Miller, Robin Weigert, Analeigh Tipton, Alfre Woodard, Jayson Warner Smith, Kerry Cahill, P.J. Marshall



Caduto in disgrazie e costretto a fronteggiare le difficoltà economiche, Gerry fa squadra con un carismatico giocatore di poker di nome Curtis nel tentativo di cambiare il suo destino. Insieme, i due partono per un viaggio attraverso il sud degli Stati Uniti con la speranza di riavere indietro ciò che hanno perso.........



Down on his luck and facing financial hardship, Gerry teams up with younger charismatic poker player, Curtis, in an attempt to change his luck. The two set off on a road trip through the South with visions of winning back what's been lost.











[spoiler]
General
Unique ID                                : 126990717690666235441946384908555688584 (0x5F8985C831A9E7977DCEF62D89649A8
Complete name                            : Mississippi Grind (2015).H264.ita.eng.sub.ita.eng.iCV-MIRCrew.mkv
Format                                   : Matroska
Format version                           : Version 2
File size                                : 1.55 GiB
Duration                                 : 1h 49mn
Overall bit rate                         : 2 033 Kbps
Movie name                               : www.icv-crew.org
Encoded date                             : UTC 2017-05-15 20:47:45
Writing application                      : Lavf54.63.100
Writing library                          : Lavf54.63.100
COPYRIGHT                                : robbyrs

Video
ID                                       : 1
Format                                   : AVC
Format/Info                              : Advanced Video Codec
Format profile                           : [email protected]
Format settings, CABAC                   : Yes
Format settings, ReFrames                : 2 frames
Codec ID                                 : V_MPEG4/ISO/AVC
Duration                                 : 1h 49mn
Bit rate                                 : 1 225 Kbps
Nominal bit rate                         : 1 300 Kbps
Width                                    : 720 pixels
Height                                   : 300 pixels
Display aspect ratio                     : 2.40:1
Frame rate mode                          : Variable
Frame rate                               : 23.976 fps
Color space                              : YUV
Chroma subsampling                       : 4:2:0
Bit depth                                : 8 bits
Scan type                                : Progressive
Bits/(Pixel*Frame)                       : 0.236
Stream size                              : 956 MiB (60%)
Writing library                          : x264 core 130 r2273
Encoding settings                        : cabac=1 / ref=2 / deblock=1:0:0 / analyse=0x1:0x131 / me=hex / subme=7 / psy=1 / psy_rd=1.00:0.00 / mixed_ref=0 / me_range=16 / chroma_me=1 / trellis=1 / 8x8dct=0 / cqm=0 / deadzone=21,11 / fast_pskip=1 / chroma_qp_offset=-2 / threads=12 / lookahead_threads=2 / sliced_threads=0 / nr=0 / decimate=1 / interlaced=0 / bluray_compat=0 / constrained_intra=0 / bframes=3 / b_pyramid=0 / b_adapt=1 / b_bias=0 / direct=3 / weightb=1 / open_gop=0 / weightp=2 / keyint=230 / keyint_min=23 / scenecut=40 / intra_refresh=0 / rc_lookahead=40 / rc=abr / mbtree=1 / bitrate=1300 / ratetol=1.0 / qcomp=0.60 / qpmin=10 / qpmax=69 / qpstep=4 / vbv_maxrate=24000 / vbv_bufsize=24000 / nal_hrd=none / ip_ratio=1.40 / aq=1:1.00
Language                                 : Italian
Default                                  : Yes
Forced                                   : No
DURATION                                 : 01:49:10.513000000
NUMBER_OF_FRAMES                         : 157055
NUMBER_OF_BYTES                          : 6977412216
_STATISTICS_WRITING_APP                  : mkvmerge v8.7.0 ('All of the above') 64bit
_STATISTICS_WRITING_DATE_UTC             : 2017-05-09 21:42:38
_STATISTICS_TAGS                         : BPS DURATION NUMBER_OF_FRAMES NUMBER_OF_BYTES

Audio #1
ID                                       : 2
Format                                   : AC-3
Format/Info                              : Audio Coding 3
Mode extension                           : CM (complete main)
Codec ID                                 : A_AC3
Duration                                 : 1h 49mn
Bit rate mode                            : Constant
Bit rate                                 : 384 Kbps
Channel(s)                               : 6 channels
Channel positions                        : Front: L C R, Side: L R, LFE
Sampling rate                            : 48.0 KHz
Bit depth                                : 16 bits
Compression mode                         : Lossy
Delay relative to video                  : 1mn 5s
Stream size                              : 300 MiB (19%)
Title                                    : AC3 ITA
Language                                 : Italian
Default                                  : Yes
Forced                                   : No
DURATION                                 : 01:49:00.672000000
NUMBER_OF_FRAMES                         : 204396
NUMBER_OF_BYTES                          : 313952256
_STATISTICS_WRITING_APP                  : mkvmerge v8.7.0 ('All of the above') 64bit
_STATISTICS_WRITING_DATE_UTC             : 2017-05-09 21:42:38
_STATISTICS_TAGS                         : BPS DURATION NUMBER_OF_FRAMES NUMBER_OF_BYTES

Audio #2
ID                                       : 3
Format                                   : AC-3
Format/Info                              : Audio Coding 3
Mode extension                           : CM (complete main)
Codec ID                                 : A_AC3
Duration                                 : 1h 49mn
Bit rate mode                            : Constant
Bit rate                                 : 384 Kbps
Channel(s)                               : 6 channels
Channel positions                        : Front: L C R, Side: L R, LFE
Sampling rate                            : 48.0 KHz
Bit depth                                : 16 bits
Compression mode                         : Lossy
Delay relative to video                  : 1mn 5s
Stream size                              : 300 MiB (19%)
Title                                    : AC3 ENG
Language                                 : English
Default                                  : No
Forced                                   : No
DURATION                                 : 01:49:10.624000000
NUMBER_OF_FRAMES                         : 204707
NUMBER_OF_BYTES                          : 524049920
_STATISTICS_WRITING_APP                  : mkvmerge v8.7.0 ('All of the above') 64bit
_STATISTICS_WRITING_DATE_UTC             : 2017-05-09 21:42:38
_STATISTICS_TAGS                         : BPS DURATION NUMBER_OF_FRAMES NUMBER_OF_BYTES

Text #1
ID                                       : 4
Format                                   : ASS
Codec ID                                 : S_TEXT/ASS
Codec ID/Info                            : Advanced Sub Station Alpha
Compression mode                         : Lossless
Title                                    : REGULAR
Language                                 : Italian
Default                                  : No
Forced                                   : No
DURATION                                 : 01:43:19.489000000
NUMBER_OF_FRAMES                         : 1491
NUMBER_OF_BYTES                          : 45715
_STATISTICS_WRITING_APP                  : mkvmerge v8.7.0 ('All of the above') 64bit
_STATISTICS_WRITING_DATE_UTC             : 2017-05-09 21:42:38
_STATISTICS_TAGS                         : BPS DURATION NUMBER_OF_FRAMES NUMBER_OF_BYTES

Text #2
ID                                       : 5
Format                                   : ASS
Codec ID                                 : S_TEXT/ASS
Codec ID/Info                            : Advanced Sub Station Alpha
Compression mode                         : Lossless
Title                                    : REGULAR
Language                                 : English
Default                                  : No
Forced                                   : No
DURATION                                 : 01:47:41.036000000
NUMBER_OF_FRAMES                         : 1636
NUMBER_OF_BYTES                          : 54223
_STATISTICS_WRITING_APP                  : mkvmerge v8.7.0 ('All of the above') 64bit
_STATISTICS_WRITING_DATE_UTC             : 2017-05-09 21:42:38
_STATISTICS_TAGS                         : BPS DURATION NUMBER_OF_FRAMES NUMBER_OF_BYTES

Menu
00:00:00.000                             : :00:00:00.000
00:07:20.273                             : :00:07:20.273
00:13:15.836                             : :00:13:15.836
00:20:29.644                             : :00:20:29.644
00:27:44.996                             : :00:27:44.996
00:34:07.670                             : :00:34:07.670
00:42:13.530                             : :00:42:13.530
00:50:30.110                             : :00:50:30.110
00:58:45.480                             : :00:58:45.480
01:07:51.275                             : :01:07:51.275
01:12:44.609                             : :01:12:44.609
01:16:40.052                             : :01:16:40.052
01:23:14.029                             : :01:23:14.029
01:27:44.716                             : :01:27:44.716
01:32:11.775                             : :01:32:11.775
01:43:26.574                             : :01:43:26.574


[/spoiler]

[/center]

Info: Per scaricare devi usare un client come uTorrent o Transmission
AnnounceURL
udp://tracker.coppersurfer.tk:6969/announce
Hash 841ea49473b03a1d07dac1d568a9ba4617db7495
Peers seeds: 69 , leech: 16
Size 1.55 GB
Completato 924x
Aggiunto 21.05.17 - 10:05:14
Uploader   robbyrs
Votazione (Voti: 1)


Condividi questo bittorrent:


html/blog:


bbcode/forum:




Aggiungi Commento


counter