* Dettagli Torrent   globale  | Commenti (0) 


- Split (2016).H264.Italian.English.Ac3.5.1.sub.ita.eng.iCV-MIRCrew -


Download via torrent:
Categoria bittorrent BDRip
Descrizione
Split (2016).H264.Italian.English.Ac3.5.1.sub.ita.eng.iCV-MIRCrew


[center]by www.icv-crew.org


NO FOUND ONLY ORIGINAL RELEASE



My release is always in double track audio italian and Original audio
for select it use VLC or dvd player home
not use wmp

Split (2016)

PRESENTI ANCHE i SOTTOTITOLI

ESTERNI IN SRT (ita/eng)







Titolo originale Split
Lingua originale inglese
Paese di produzione Stati Uniti d'America
Anno 2016
Durata 116 min
Genere thriller, orrore
Regia M. Night Shyamalan
Soggetto M. Night Shyamalan
Sceneggiatura M. Night Shyamalan
Produttore Marc Bienstock, Jason Blum, M. Night Shyamalan
Produttore esecutivo Ashwin Rajan, Steven Schneider
Casa di produzione Blinding Edge Pictures, Blumhouse Productions
Distribuzione (Italia) Universal Pictures
Fotografia Mike Gioulakis
Montaggio Luke Franco Ciarrocchi
Musiche West Dylan Thordson
Scenografia Mara LePere-Schloop




   James McAvoy: Kevin Wendell Crumb
   Anya Taylor-Joy: Casey Cook
   Betty Buckley: Karen Fletcher
   Haley Lu Richardson: Claire Benoit
   Jessica Sula: Marcia
   Brad William Henke: zio John
   Sebastian Arcelus: padre di Casey
   Neal Huff: padre di Claire
   Morgan Spector: Derek




Tre adolescenti, Claire, Marcia e Casey, vengono rapite e tenute prigioniere in una "cantina" da "Dennis", una delle 23 personalità diverse che abitano il corpo di Kevin Wendell Crumb, che a sua volta è stato vittima di abuso infantile che gli ha generato una grave patologia di disturbo dissociativo dell'identità...................



Three girls are kidnapped by a man with a diagnosed 23 distinct personalities. They must try to escape before the apparent emergence of a frightful new 24th.













[spoiler]
General
Unique ID                                : 9849352844650067317790634242703333219 (0x768EA9669F88C5E342D5EE0D44B9763)
Complete name                            : Split (2016).H264.ita.eng.sub.ita.eng.iCV-MIRCrew.mkv
Format                                   : Matroska
Format version                           : Version 2
File size                                : 1.72 GiB
Duration                                 : 1h 57mn
Overall bit rate                         : 2 102 Kbps
Movie name                               : www.icv-crew.org
Encoded date                             : UTC 2017-05-13 13:43:42
Writing application                      : Lavf54.63.100
Writing library                          : Lavf54.63.100
COPYRIGHT                                : robbyrs

Video
ID                                       : 1
Format                                   : AVC
Format/Info                              : Advanced Video Codec
Format profile                           : [email protected]
Format settings, CABAC                   : Yes
Format settings, ReFrames                : 2 frames
Codec ID                                 : V_MPEG4/ISO/AVC
Duration                                 : 1h 57mn
Bit rate                                 : 1 300 Kbps
Width                                    : 720 pixels
Height                                   : 304 pixels
Display aspect ratio                     : 2.40:1
Frame rate mode                          : Variable
Frame rate                               : 23.976 fps
Color space                              : YUV
Chroma subsampling                       : 4:2:0
Bit depth                                : 8 bits
Scan type                                : Progressive
Bits/(Pixel*Frame)                       : 0.248
Stream size                              : 1.06 GiB (61%)
Writing library                          : x264 core 130 r2273
Encoding settings                        : cabac=1 / ref=2 / deblock=1:0:0 / analyse=0x1:0x131 / me=hex / subme=7 / psy=1 / psy_rd=1.00:0.00 / mixed_ref=0 / me_range=16 / chroma_me=1 / trellis=1 / 8x8dct=0 / cqm=0 / deadzone=21,11 / fast_pskip=1 / chroma_qp_offset=-2 / threads=12 / lookahead_threads=2 / sliced_threads=0 / nr=0 / decimate=1 / interlaced=0 / bluray_compat=0 / constrained_intra=0 / bframes=3 / b_pyramid=0 / b_adapt=1 / b_bias=0 / direct=3 / weightb=1 / open_gop=0 / weightp=2 / keyint=230 / keyint_min=23 / scenecut=40 / intra_refresh=0 / rc_lookahead=40 / rc=abr / mbtree=1 / bitrate=1300 / ratetol=1.0 / qcomp=0.60 / qpmin=10 / qpmax=69 / qpstep=4 / vbv_maxrate=24000 / vbv_bufsize=24000 / nal_hrd=none / ip_ratio=1.40 / aq=1:1.00
Language                                 : Italian
Default                                  : Yes
Forced                                   : No
DURATION                                 : 01:57:07.824000000
NUMBER_OF_FRAMES                         : 168499
NUMBER_OF_BYTES                          : 8062461510
_STATISTICS_WRITING_APP                  : mkvmerge v7.2.0 ('On Every Street') 64bit built on Sep 13 2014 15:52:10
_STATISTICS_WRITING_DATE_UTC             : 2017-05-11 02:09:31
_STATISTICS_TAGS                         : BPS DURATION NUMBER_OF_FRAMES NUMBER_OF_BYTES

Audio #1
ID                                       : 2
Format                                   : AC-3
Format/Info                              : Audio Coding 3
Mode extension                           : CM (complete main)
Codec ID                                 : A_AC3
Duration                                 : 1h 57mn
Bit rate mode                            : Constant
Bit rate                                 : 384 Kbps
Channel(s)                               : 6 channels
Channel positions                        : Front: L C R, Side: L R, LFE
Sampling rate                            : 48.0 KHz
Bit depth                                : 16 bits
Compression mode                         : Lossy
Delay relative to video                  : 1mn 5s
Stream size                              : 322 MiB (18%)
Title                                    : AC3 iTA
Language                                 : Italian
Default                                  : Yes
Forced                                   : Yes
DURATION                                 : 01:57:07.840000000
NUMBER_OF_FRAMES                         : 219620
NUMBER_OF_BYTES                          : 337336320
_STATISTICS_WRITING_APP                  : mkvmerge v7.2.0 ('On Every Street') 64bit built on Sep 13 2014 15:52:10
_STATISTICS_WRITING_DATE_UTC             : 2017-05-11 02:09:31
_STATISTICS_TAGS                         : BPS DURATION NUMBER_OF_FRAMES NUMBER_OF_BYTES

Audio #2
ID                                       : 3
Format                                   : AC-3
Format/Info                              : Audio Coding 3
Mode extension                           : CM (complete main)
Codec ID                                 : A_AC3
Duration                                 : 1h 57mn
Bit rate mode                            : Constant
Bit rate                                 : 384 Kbps
Channel(s)                               : 6 channels
Channel positions                        : Front: L C R, Side: L R, LFE
Sampling rate                            : 48.0 KHz
Bit depth                                : 16 bits
Compression mode                         : Lossy
Delay relative to video                  : 1mn 5s
Stream size                              : 322 MiB (18%)
Title                                    : AC3 ENG
Language                                 : English
Default                                  : No
Forced                                   : No
DURATION                                 : 01:57:07.872000000
NUMBER_OF_FRAMES                         : 219621
NUMBER_OF_BYTES                          : 562229760
_STATISTICS_WRITING_APP                  : mkvmerge v7.2.0 ('On Every Street') 64bit built on Sep 13 2014 15:52:10
_STATISTICS_WRITING_DATE_UTC             : 2017-05-11 02:09:31
_STATISTICS_TAGS                         : BPS DURATION NUMBER_OF_FRAMES NUMBER_OF_BYTES

Text #1
ID                                       : 4
Format                                   : ASS
Codec ID                                 : S_TEXT/ASS
Codec ID/Info                            : Advanced Sub Station Alpha
Compression mode                         : Lossless
Title                                    : FORCED iTA
Language                                 : Italian
Default                                  : Yes
Forced                                   : Yes
DURATION                                 : 01:46:21.556000000
NUMBER_OF_FRAMES                         : 11
NUMBER_OF_BYTES                          : 317
_STATISTICS_WRITING_APP                  : mkvmerge v7.2.0 ('On Every Street') 64bit built on Sep 13 2014 15:52:10
_STATISTICS_WRITING_DATE_UTC             : 2017-05-11 02:09:31
_STATISTICS_TAGS                         : BPS DURATION NUMBER_OF_FRAMES NUMBER_OF_BYTES

Text #2
ID                                       : 5
Format                                   : ASS
Codec ID                                 : S_TEXT/ASS
Codec ID/Info                            : Advanced Sub Station Alpha
Compression mode                         : Lossless
Title                                    : REGULAR iTA
Language                                 : Italian
Default                                  : No
Forced                                   : No
DURATION                                 : 01:56:14.183000000
NUMBER_OF_FRAMES                         : 1224
NUMBER_OF_BYTES                          : 35864
_STATISTICS_WRITING_APP                  : mkvmerge v7.2.0 ('On Every Street') 64bit built on Sep 13 2014 15:52:10
_STATISTICS_WRITING_DATE_UTC             : 2017-05-11 02:09:31
_STATISTICS_TAGS                         : BPS DURATION NUMBER_OF_FRAMES NUMBER_OF_BYTES

Text #3
ID                                       : 6
Format                                   : ASS
Codec ID                                 : S_TEXT/ASS
Codec ID/Info                            : Advanced Sub Station Alpha
Compression mode                         : Lossless
Title                                    : NON UDENTI ENG
Language                                 : English
Default                                  : No
Forced                                   : No
DURATION                                 : 01:51:18.464000000
NUMBER_OF_FRAMES                         : 1441
NUMBER_OF_BYTES                          : 41255
_STATISTICS_WRITING_APP                  : mkvmerge v7.2.0 ('On Every Street') 64bit built on Sep 13 2014 15:52:10
_STATISTICS_WRITING_DATE_UTC             : 2017-05-11 02:09:31
_STATISTICS_TAGS                         : BPS DURATION NUMBER_OF_FRAMES NUMBER_OF_BYTES

Menu
00:00:00.000                             : :Chapter 01
00:06:08.451                             : :Chapter 02
00:14:19.024                             : :Chapter 03
00:20:49.373                             : :Chapter 04
00:24:14.536                             : :Chapter 05
00:28:37.048                             : :Chapter 06
00:35:47.979                             : :Chapter 07
00:42:35.386                             : :Chapter 08
00:49:06.068                             : :Chapter 09
00:54:09.412                             : :Chapter 10
01:00:24.495                             : :Chapter 11
01:06:22.561                             : :Chapter 12
01:12:31.221                             : :Chapter 13
01:19:35.771                             : :Chapter 14
01:25:25.829                             : :Chapter 15
01:29:16.559                             : :Chapter 16
01:34:08.225                             : :Chapter 17
01:40:45.998                             : :Chapter 18
01:47:40.287                             : :Chapter 19
01:52:26.740                             : :Chapter 20


[/spoiler]

[/center]

Info: Per scaricare devi usare un client come uTorrent o Transmission
AnnounceURL
udp://tracker.coppersurfer.tk:6969/announce
Hash ecc9932bef03c660bff461ad229f89e0f2e6e6d5
Peers seeds: 210 , leech: 45
Size 1.72 GB
Completato 2565x
Aggiunto 14.05.17 - 08:05:58
Uploader   robbyrs
Votazione (Voti: 1)


Condividi questo bittorrent:


html/blog:


bbcode/forum:




Aggiungi Commento


counter