* Dettagli Torrent   globale  | Commenti (0) 


- Sing Street (2016).H264.Italian.English.Ac3.5.1.sub.ita.eng.iCV-MIRCrew -


Download via torrent:
Categoria bittorrent BDRip
Descrizione
Sing Street (2016).H264.Italian.English.Ac3.5.1.sub.ita.eng.iCV-MIRCrew


[center]by www.icv-crew.org


NO FOUND ONLY ORIGINAL RELEASE



My release is always in double track audio italian and Original audio
for select it use VLC or dvd player home
not use wmp

Sing Street (2016)







Titolo originale Sing Street
Lingua originale inglese
Paese di produzione Irlanda
Anno 2016
Durata 106 min
Genere drammatico, musicale
Regia John Carney
Soggetto John Carney, Simon Carmody
Sceneggiatura John Carney
Produttore Anthony Bregman, John Carney, Martina Niland
Produttore esecutivo Kevin Frakes, Raj Singh, Bob Weinstein, Harvey Weinstein
Casa di produzione Cosmo Films, Distressed Films, FilmWave, Likely Story, PalmStar Media
Distribuzione (Italia) BiM Distribuzione
Fotografia Yaron Orbach
Montaggio Andrew Marcus, Julian Ulrichs
Scenografia Alan MacDonald




   Ferdia Walsh-Peelo: Conor "Cosmo" Lalor
   Lucy Boynton: Raphina
   Jack Reynor: Brendan
   Aidan Gillen: Robert
   Maria Doyle Kennedy: Penny
   Kelly Thornton: Ann
   Ben Carolan: Darren
   Mark McKenna: Eamon
   Percy Chamburuka: Ngig
   Conor Hamilton: Larry
   Karl Rice: Garry
   Ian Kenny: Barry
   Don Wycherley: fratello Baxter
   Lydia McGuinness: miss Dunne




Negli anni ottanta il quattordicenne Conor vive con i suoi genitori a Dublino e cerca di evadere dai problemi familiari ed economici grazie alla musica. Deve inoltre adattarsi al cambiamento della propria scuola per motivi finanziari. Nel liceo nuovo, un grande complesso governato dai cattolici, conosce il bullismo e i professori lo iniziano, fin da subito, a odiare....................



A boy growing up in Dublin during the 1980s escapes his strained family life by starting a band to impress the mysterious girl he likes.








[spoiler]
General
Unique ID                                : 164558523509822020914736441247899369633 (0x7BCCD19D15AC628958A39E03C884C0A1)
Complete name                            : Sing Street (2016).H264.ita.eng.sub.ita.eng.iCV-MIRCrew.mkv
Format                                   : Matroska
Format version                           : Version 2
File size                                : 1.62 GiB
Duration                                 : 1h 45mn
Overall bit rate                         : 2 195 Kbps
Movie name                               : www.icv-crew.org
Encoded date                             : UTC 2017-04-30 17:05:27
Writing application                      : Lavf54.63.100
Writing library                          : Lavf54.63.100
COPYRIGHT                                : robbyrs

Video
ID                                       : 1
Format                                   : AVC
Format/Info                              : Advanced Video Codec
Format profile                           : [email protected]
Format settings, CABAC                   : Yes
Format settings, ReFrames                : 2 frames
Codec ID                                 : V_MPEG4/ISO/AVC
Duration                                 : 1h 45mn
Bit rate                                 : 1 290 Kbps
Width                                    : 720 pixels
Height                                   : 304 pixels
Display aspect ratio                     : 2.40:1
Frame rate mode                          : Variable
Frame rate                               : 23.976 fps
Color space                              : YUV
Chroma subsampling                       : 4:2:0
Bit depth                                : 8 bits
Scan type                                : Progressive
Bits/(Pixel*Frame)                       : 0.246
Stream size                              : 946 MiB (57%)
Writing library                          : x264 core 130 r2273
Encoding settings                        : cabac=1 / ref=2 / deblock=1:0:0 / analyse=0x1:0x131 / me=hex / subme=7 / psy=1 / psy_rd=1.00:0.00 / mixed_ref=0 / me_range=16 / chroma_me=1 / trellis=1 / 8x8dct=0 / cqm=0 / deadzone=21,11 / fast_pskip=1 / chroma_qp_offset=-2 / threads=12 / lookahead_threads=2 / sliced_threads=0 / nr=0 / decimate=1 / interlaced=0 / bluray_compat=0 / constrained_intra=0 / bframes=3 / b_pyramid=0 / b_adapt=1 / b_bias=0 / direct=3 / weightb=1 / open_gop=0 / weightp=2 / keyint=230 / keyint_min=23 / scenecut=40 / intra_refresh=0 / rc_lookahead=40 / rc=abr / mbtree=1 / bitrate=1290 / ratetol=1.0 / qcomp=0.60 / qpmin=10 / qpmax=69 / qpstep=4 / vbv_maxrate=24000 / vbv_bufsize=24000 / nal_hrd=none / ip_ratio=1.40 / aq=1:1.00
Language                                 : Italian
Default                                  : Yes
Forced                                   : No
DURATION                                 : 01:45:24.871000000
NUMBER_OF_FRAMES                         : 151645
NUMBER_OF_BYTES                          : 7020648600
_STATISTICS_WRITING_APP                  : mkvmerge v8.7.0 ('All of the above') 64bit
_STATISTICS_WRITING_DATE_UTC             : 2017-02-23 18:45:29
_STATISTICS_TAGS                         : BPS DURATION NUMBER_OF_FRAMES NUMBER_OF_BYTES

Audio #1
ID                                       : 2
Format                                   : AC-3
Format/Info                              : Audio Coding 3
Mode extension                           : CM (complete main)
Codec ID                                 : A_AC3
Duration                                 : 1h 45mn
Bit rate mode                            : Constant
Bit rate                                 : 448 Kbps
Channel(s)                               : 6 channels
Channel positions                        : Front: L C R, Side: L R, LFE
Sampling rate                            : 48.0 KHz
Bit depth                                : 16 bits
Compression mode                         : Lossy
Delay relative to video                  : 1mn 5s
Stream size                              : 338 MiB (20%)
Language                                 : Italian
Default                                  : Yes
Forced                                   : No
DURATION                                 : 01:45:24.768000000
NUMBER_OF_FRAMES                         : 197649
NUMBER_OF_BYTES                          : 354187008
_STATISTICS_WRITING_APP                  : mkvmerge v8.7.0 ('All of the above') 64bit
_STATISTICS_WRITING_DATE_UTC             : 2017-02-23 18:45:29
_STATISTICS_TAGS                         : BPS DURATION NUMBER_OF_FRAMES NUMBER_OF_BYTES

Audio #2
ID                                       : 3
Format                                   : AC-3
Format/Info                              : Audio Coding 3
Mode extension                           : CM (complete main)
Codec ID                                 : A_AC3
Duration                                 : 1h 45mn
Bit rate mode                            : Constant
Bit rate                                 : 448 Kbps
Channel(s)                               : 6 channels
Channel positions                        : Front: L C R, Side: L R, LFE
Sampling rate                            : 48.0 KHz
Bit depth                                : 16 bits
Compression mode                         : Lossy
Delay relative to video                  : 1mn 5s
Stream size                              : 338 MiB (20%)
Language                                 : English
Default                                  : No
Forced                                   : No
DURATION                                 : 01:45:24.907000000
NUMBER_OF_FRAMES                         : 592960
NUMBER_OF_BYTES                          : 1193035520
_STATISTICS_WRITING_APP                  : mkvmerge v8.7.0 ('All of the above') 64bit
_STATISTICS_WRITING_DATE_UTC             : 2017-02-23 18:45:29
_STATISTICS_TAGS                         : BPS DURATION NUMBER_OF_FRAMES NUMBER_OF_BYTES

Text #1
ID                                       : 4
Format                                   : ASS
Codec ID                                 : S_TEXT/ASS
Codec ID/Info                            : Advanced Sub Station Alpha
Compression mode                         : Lossless
Title                                    : FORCED
Language                                 : Italian
Default                                  : Yes
Forced                                   : No
DURATION                                 : 00:56:25.933000000
NUMBER_OF_FRAMES                         : 79
NUMBER_OF_BYTES                          : 2935
_STATISTICS_WRITING_APP                  : mkvmerge v8.7.0 ('All of the above') 64bit
_STATISTICS_WRITING_DATE_UTC             : 2017-02-23 18:45:29
_STATISTICS_TAGS                         : BPS DURATION NUMBER_OF_FRAMES NUMBER_OF_BYTES

Text #2
ID                                       : 5
Format                                   : ASS
Codec ID                                 : S_TEXT/ASS
Codec ID/Info                            : Advanced Sub Station Alpha
Compression mode                         : Lossless
Title                                    : REGULAR
Language                                 : Italian
Default                                  : No
Forced                                   : No
DURATION                                 : 01:40:19.568000000
NUMBER_OF_FRAMES                         : 1428
NUMBER_OF_BYTES                          : 48696
_STATISTICS_WRITING_APP                  : mkvmerge v8.7.0 ('All of the above') 64bit
_STATISTICS_WRITING_DATE_UTC             : 2017-02-23 18:45:29
_STATISTICS_TAGS                         : BPS DURATION NUMBER_OF_FRAMES NUMBER_OF_BYTES

Text #3
ID                                       : 6
Format                                   : ASS
Codec ID                                 : S_TEXT/ASS
Codec ID/Info                            : Advanced Sub Station Alpha
Compression mode                         : Lossless
Title                                    : REGULAR
Language                                 : English
Default                                  : No
Forced                                   : No
DURATION                                 : 01:44:19.128000000
NUMBER_OF_FRAMES                         : 2092
NUMBER_OF_BYTES                          : 59384
_STATISTICS_WRITING_APP                  : mkvmerge v8.7.0 ('All of the above') 64bit
_STATISTICS_WRITING_DATE_UTC             : 2017-02-23 18:45:29
_STATISTICS_TAGS                         : BPS DURATION NUMBER_OF_FRAMES NUMBER_OF_BYTES

Menu
00:00:00.000                             : :00:00:00.000
00:05:00.967                             : :00:05:00.967
00:09:40.747                             : :00:09:40.747
00:14:58.314                             : :00:14:58.314
00:20:49.707                             : :00:20:49.707
00:26:50.776                             : :00:26:50.776
00:32:27.279                             : :00:32:27.279
00:36:50.583                             : :00:36:50.583
00:43:37.782                             : :00:43:37.782
00:49:09.321                             : :00:49:09.321
00:55:03.050                             : :00:55:03.050
01:00:29.459                             : :01:00:29.459
01:04:38.625                             : :01:04:38.625
01:08:57.508                             : :01:08:57.508
01:14:55.783                             : :01:14:55.783
01:20:44.006                             : :01:20:44.006
01:27:05.554                             : :01:27:05.554
01:31:35.907                             : :01:31:35.907
01:36:47.010                             : :01:36:47.010
01:41:17.154                             : :01:41:17.154



[/spoiler]

[/center]

Info: Per scaricare devi usare un client come uTorrent o Transmission
AnnounceURL
udp://tracker.coppersurfer.tk:6969/announce
Hash 62a79859648c410454d7fbe37fc45a8f57278247
Peers seeds: 103 , leech: 11
Size 1.62 GB
Completato 1198x
Aggiunto 13.05.17 - 14:05:48
Uploader   robbyrs
Votazione (Voti: 1)


Condividi questo bittorrent:


html/blog:


bbcode/forum:




Aggiungi Commento


counter