* Dettagli Torrent   globale  | Commenti (0) 


- Re per una notte (1982).H264.Italian.English.Ac3.sub.eng.iCV-MIRCrew -


Download via torrent:
Categoria bittorrent BDRip
Descrizione
The King of Comedy - Re per una notte (1982).H264.Italian.English.Ac3.sub.eng.iCV-MIRCrew

[center]by www.icv-crew.org


NO FOUND ONLY ORIGINAL RELEASE



My release is always in double track audio italian and Original audio
for select it use VLC or dvd player home
not use wmp

Re per una notte - The King of Comedy (1982)







Titolo originale The King of Comedy
Paese di produzione Stati Uniti
Anno 1983
Durata 109 min
Genere commedia, drammatico
Regia Martin Scorsese
Soggetto Paul D. Zimmerman
Sceneggiatura Paul D. Zimmerman
Produttore Arnon Milchan
Fotografia Fred Schuler
Montaggio Thelma Schoonmaker
Musiche Robbie Robertson
Scenografia Boris Leven



   Robert De Niro: Rupert Pupkin
   Jerry Lewis: Jerry Langford
   Diahnne Abbott: Rita Keane
   Sandra Bernhard: Marsha
   Shelley Hack: Cathy Long
   Martin Scorsese: Direttore TV
   Tony Randall: se stesso
   Fred De Cordova: Berth Thomas



Rupert Pupkin è un uomo di 34 anni che sogna ad occhi aperti di diventare un comico affermato, è single e vive con sua madre. Accanito fan dello showman televisivo Jerry Langford, dopo un incontro con lui, comincia ad assillarlo nel tentativo di ottenere un provino se non anche un'apparizione sugli schermi..................



Aspiring comic Rupert Pupkin attempts to achieve success in show business by stalking his idol, a late night talk-show host who craves his own privacy.  








[spoiler]
General
Unique ID                                : 139337353623792395305675530746148551694 (0x68D365EE927E6C8BBC4F1D3A4E0DFC0E)
Complete name                            : Re per una notte - The King of Comedy (1982).H264.ita.eng.sub.eng.iCV-MIRCrew.mkv
Format                                   : Matroska
Format version                           : Version 2
File size                                : 1.30 GiB
Duration                                 : 1h 48mn
Overall bit rate                         : 1 708 Kbps
Movie name                               : VISIT www.icv-crew.org
Encoded date                             : UTC 2017-03-18 18:13:57
Writing application                      : Lavf54.63.100
Writing library                          : Lavf54.63.100
COPYRIGHT                                : robbyrs

Video
ID                                       : 1
Format                                   : AVC
Format/Info                              : Advanced Video Codec
Format profile                           : [email protected]
Format settings, CABAC                   : Yes
Format settings, ReFrames                : 2 frames
Codec ID                                 : V_MPEG4/ISO/AVC
Duration                                 : 1h 48mn
Bit rate                                 : 1 290 Kbps
Width                                    : 720 pixels
Height                                   : 384 pixels
Display aspect ratio                     : 16:9
Original display aspect ratio            : 1.850
Frame rate mode                          : Variable
Frame rate                               : 23.976 fps
Color space                              : YUV
Chroma subsampling                       : 4:2:0
Bit depth                                : 8 bits
Scan type                                : Progressive
Bits/(Pixel*Frame)                       : 0.195
Stream size                              : 1 005 MiB (76%)
Writing library                          : x264 core 130 r2273
Encoding settings                        : cabac=1 / ref=2 / deblock=1:0:0 / analyse=0x1:0x131 / me=hex / subme=7 / psy=1 / psy_rd=1.00:0.00 / mixed_ref=0 / me_range=16 / chroma_me=1 / trellis=1 / 8x8dct=0 / cqm=0 / deadzone=21,11 / fast_pskip=1 / chroma_qp_offset=-2 / threads=12 / lookahead_threads=2 / sliced_threads=0 / nr=0 / decimate=1 / interlaced=0 / bluray_compat=0 / constrained_intra=0 / bframes=3 / b_pyramid=0 / b_adapt=1 / b_bias=0 / direct=3 / weightb=1 / open_gop=0 / weightp=2 / keyint=230 / keyint_min=23 / scenecut=40 / intra_refresh=0 / rc_lookahead=40 / rc=2pass / mbtree=1 / bitrate=1290 / ratetol=1.0 / qcomp=0.60 / qpmin=10 / qpmax=69 / qpstep=4 / cplxblur=20.0 / qblur=0.5 / vbv_maxrate=24000 / vbv_bufsize=24000 / nal_hrd=none / ip_ratio=1.40 / aq=1:1.00
Language                                 : Italian
Default                                  : Yes
Forced                                   : No

Audio #1
ID                                       : 2
Format                                   : AC-3
Format/Info                              : Audio Coding 3
Mode extension                           : CM (complete main)
Codec ID                                 : A_AC3
Duration                                 : 1h 48mn
Bit rate mode                            : Constant
Bit rate                                 : 192 Kbps
Channel(s)                               : 1 channel
Channel positions                        : Front: C
Sampling rate                            : 48.0 KHz
Bit depth                                : 16 bits
Compression mode                         : Lossy
Delay relative to video                  : 1mn 5s
Stream size                              : 150 MiB (11%)
Language                                 : Italian
Default                                  : Yes
Forced                                   : No

Audio #2
ID                                       : 3
Format                                   : AC-3
Format/Info                              : Audio Coding 3
Mode extension                           : CM (complete main)
Codec ID                                 : A_AC3
Duration                                 : 1h 48mn
Bit rate mode                            : Constant
Bit rate                                 : 192 Kbps
Channel(s)                               : 1 channel
Channel positions                        : Front: C
Sampling rate                            : 48.0 KHz
Bit depth                                : 16 bits
Compression mode                         : Lossy
Delay relative to video                  : 1mn 5s
Stream size                              : 150 MiB (11%)
Language                                 : English
Default                                  : No
Forced                                   : No

Text #1
ID                                       : 4
Format                                   : UTF-8
Codec ID                                 : S_TEXT/UTF8
Codec ID/Info                            : UTF-8 Plain Text
Title                                    : -
Language                                 : English
Default                                  : Yes
Forced                                   : Yes

Text #2
ID                                       : 5
Format                                   : VobSub
Codec ID                                 : S_VOBSUB
Codec ID/Info                            : The same subtitle format used on DVDs
Title                                    : ENG SDH
Language                                 : English
Default                                  : No
Forced                                   : No

Text #3
ID                                       : 6
Format                                   : VobSub
Codec ID                                 : S_VOBSUB
Codec ID/Info                            : The same subtitle format used on DVDs
Title                                    : ENG SDH
Language                                 : English
Default                                  : No
Forced                                   : No

Menu
00:00:00.000                             : :00:00:00.000
00:03:14.319                             : :00:03:14.319
00:05:47.931                             : :00:05:47.931
00:11:06.624                             : :00:11:06.624
00:13:37.191                             : :00:13:37.191
00:14:57.939                             : :00:14:57.939
00:23:38.709                             : :00:23:38.709
00:29:40.737                             : :00:29:40.737
00:32:05.590                             : :00:32:05.590
00:36:30.021                             : :00:36:30.021
00:38:20.173                             : :00:38:20.173
00:41:12.679                             : :00:41:12.679
00:44:44.140                             : :00:44:44.140
00:52:31.315                             : :00:52:31.315
01:01:18.091                             : :01:01:18.091
01:05:16.037                             : :01:05:16.037
01:09:30.625                             : :01:09:30.625
01:14:34.929                             : :01:14:34.929
01:17:00.991                             : :01:17:00.991
01:18:32.041                             : :01:18:32.041
01:21:53.742                             : :01:21:53.742
01:24:58.218                             : :01:24:58.218
01:26:29.267                             : :01:26:29.267
01:30:22.000                             : :01:30:22.000
01:32:23.288                             : :01:32:23.288
01:35:06.284                             : :01:35:06.284
01:42:39.987                             : :01:42:39.987
01:45:19.146                             : :01:45:19.146


[/spoiler]

[/center]

Info: Per scaricare devi usare un client come uTorrent o Transmission
AnnounceURL
udp://tracker.coppersurfer.tk:6969/announce
Hash 3a690840af093a731dccd1a7eb100ee18450559d
Peers seeds: 18 , leech: 3
Size 1.30 GB
Completato 331x
Aggiunto 13.05.17 - 11:05:31
Uploader   robbyrs
Votazione (Voti: 0)


Condividi questo bittorrent:


html/blog:


bbcode/forum:




Aggiungi Commento


counter