* Dettagli Torrent   globale  | Commenti (1) 


- Adaline - L eterna giovinezza (2015).H264.Italian.English.Ac3.5.1.sub.ita.iCV-MIRCrew -


Download via torrent:
Categoria bittorrent BDRip
Descrizione
The Age of Adaline - Adaline - L'eterna giovinezza (2015).H264.Italian.English.Ac3.5.1.sub.ita.iCV-MIRCrew


[center]by www.icv-crew.org


NO FOUND ONLY ORIGINAL RELEASE



My release is always in double track audio italian and Original audio
for select it use VLC or dvd player home
not use wmp

Adaline - L'eterna giovinezza - The Age of Adaline (2015)









Titolo originale: The Age of Adaline
Regia:  Lee Toland Krieger
Durata: 1h 48
Nazionalità: USA
Anno: 2015
Genere: Drammatico, Sentimentale, Fantastico
Sceneggiatura: Salvador Paskowitz, J. Mills Goodloe
Fotografia: David Lanzenberg
Musiche: Rob Simonsen



Harrison Ford, Blake Lively, Michiel Huisman, Amanda Crew, Ellen Burstyn, Richard Harmon, Kathy Baker, Anjali Jay, Lynda Boyd, Barclay Hope, Chris William Martin, Anthony Ingruber



Adaline Bowman, nata nel 1908, all'età di 29 anni è vittima di un incidente d'auto che, paradossalmente, la rende immortale. Da quel momento smette di invecchiare e vede passarle la vita accanto: la figlia la supera in età diventando un'anziana signora, e Adaline impara a non innamorarsi per non dover assistere allo stesso disallineamento spaziotemporale. Così passa i decenni a cambiare casa e vita, ogni volta che qualcuno comincia ad accorgersi che ha sempre lo stesso aspetto fisico.............



A young woman, born at the turn of the 20th century, is rendered ageless after an accident. After many solitary years, she meets a man who complicates the eternal life she has settled into.








[spoiler]
General
Unique ID                                : 164514122925908233387390480413246703792 (0x7BC4447EED74DDB46EF0E76B731D48B0)
Complete name                            : Adaline - L'eterna giovinezza (2015).ita.eng.sub.ita.iCV-MIRCrew.mkv
Format                                   : Matroska
Format version                           : Version 2
File size                                : 1.72 GiB
Duration                                 : 1h 52mn
Overall bit rate                         : 2 179 Kbps
Encoded date                             : UTC 2017-04-20T16:02:11Z
Writing application                      : HandBrake 0.10.5 2016021100
Writing library                          : Lavf55.12.0

Video
ID                                       : 1
Format                                   : AVC
Format/Info                              : Advanced Video Codec
Format profile                           : [email protected]
Format settings, CABAC                   : Yes
Format settings, ReFrames                : 4 frames
Codec ID                                 : V_MPEG4/ISO/AVC
Duration                                 : 1h 52mn
Bit rate                                 : 1 290 Kbps
Width                                    : 720 pixels
Height                                   : 300 pixels
Display aspect ratio                     : 2.40:1
Original display aspect ratio            : 2.40:1
Frame rate mode                          : Variable
Frame rate                               : 24.000 fps
Color space                              : YUV
Chroma subsampling                       : 4:2:0
Bit depth                                : 8 bits
Scan type                                : Progressive
Bits/(Pixel*Frame)                       : 0.249
Stream size                              : 1 001 MiB (57%)
Writing library                          : x264 core 142 r2479 dd79a61
Encoding settings                        : cabac=1 / ref=1 / deblock=1:0:0 / analyse=0x1:0x111 / me=hex / subme=2 / psy=1 / psy_rd=1.00:0.00 / mixed_ref=0 / me_range=16 / chroma_me=1 / trellis=0 / 8x8dct=0 / cqm=0 / deadzone=21,11 / fast_pskip=1 / chroma_qp_offset=0 / threads=12 / lookahead_threads=2 / sliced_threads=0 / nr=0 / decimate=1 / interlaced=0 / bluray_compat=0 / constrained_intra=0 / bframes=3 / b_pyramid=2 / b_adapt=1 / b_bias=0 / direct=1 / weightb=1 / open_gop=0 / weightp=1 / keyint=240 / keyint_min=24 / scenecut=40 / intra_refresh=0 / rc_lookahead=10 / rc=abr / mbtree=1 / bitrate=1290 / ratetol=1.0 / qcomp=0.60 / qpmin=0 / qpmax=69 / qpstep=4 / vbv_maxrate=20000 / vbv_bufsize=25000 / nal_hrd=none / filler=0 / ip_ratio=1.40 / aq=1:1.00
Default                                  : Yes
Forced                                   : No
Color primaries                          : BT.709-5, BT.1361, IEC 61966-2-4, SMPTE RP177
Transfer characteristics                 : BT.709-5, BT.1361
Matrix coefficients                      : BT.709-5, BT.1361, IEC 61966-2-4 709, SMPTE RP177

Audio #1
ID                                       : 2
Format                                   : AC-3
Format/Info                              : Audio Coding 3
Mode extension                           : CM (complete main)
Codec ID                                 : A_AC3
Duration                                 : 1h 52mn
Bit rate mode                            : Constant
Bit rate                                 : 448 Kbps
Channel(s)                               : 6 channels
Channel positions                        : Front: L C R, Side: L R, LFE
Sampling rate                            : 48.0 KHz
Bit depth                                : 16 bits
Compression mode                         : Lossy
Delay relative to video                  : 1mn 5s
Stream size                              : 362 MiB (21%)
Language                                 : Italian
Default                                  : Yes
Forced                                   : No

Audio #2
ID                                       : 3
Format                                   : AC-3
Format/Info                              : Audio Coding 3
Mode extension                           : CM (complete main)
Codec ID                                 : A_AC3
Duration                                 : 1h 52mn
Bit rate mode                            : Constant
Bit rate                                 : 448 Kbps
Channel(s)                               : 6 channels
Channel positions                        : Front: L C R, Side: L R, LFE
Sampling rate                            : 48.0 KHz
Bit depth                                : 16 bits
Compression mode                         : Lossy
Delay relative to video                  : 1mn 5s
Stream size                              : 362 MiB (21%)
Language                                 : English
Default                                  : No
Forced                                   : No

Text #1
ID                                       : 4
Format                                   : ASS
Codec ID                                 : S_TEXT/ASS
Codec ID/Info                            : Advanced Sub Station Alpha
Compression mode                         : Lossless
Language                                 : Italian
Default                                  : No
Forced                                   : No

Text #2
ID                                       : 5
Format                                   : ASS
Codec ID                                 : S_TEXT/ASS
Codec ID/Info                            : Advanced Sub Station Alpha
Compression mode                         : Lossless
Language                                 : Italian
Default                                  : No
Forced                                   : No

Menu
00:00:00.000                             : :00:00:00.000
00:16:51.250                             : :00:16:51.125
00:25:40.083                             : :00:25:40.000
00:35:35.250                             : :00:35:35.167
00:45:19.000                             : :00:45:18.917
00:54:34.083                             : :00:54:34.000
01:02:10.875                             : :01:02:10.792
01:12:44.500                             : :01:12:44.417
01:21:08.041                             : :01:21:07.958
01:29:04.500                             : :01:29:04.292
01:38:20.791                             : :01:38:20.542
01:43:15.833                             : :01:43:15.750



[/spoiler]

[/center]

Info: Per scaricare devi usare un client come uTorrent o Transmission
AnnounceURL
udp://tracker.coppersurfer.tk:6969/announce
Hash 6dad95dc30edc10631802387408d3b32c0b0922e
Peers seeds: 90 , leech: 13
Size 1.72 GB
Completato 1246x
Aggiunto 13.05.17 - 09:05:34
Uploader   robbyrs
Votazione (Voti: 1)


Condividi questo bittorrent:


html/blog:


bbcode/forum:




Aggiungi Commento
Ultimi commenti
 jackal98jackal98   
Grazie
13/05 12.09
Tutti commenti (1)


counter