* Dettagli Torrent   globale  | Commenti (0) 


- Tumbledown - Gli imprevisti della vita (2015).H264.Italian.English.Ac3.5.1.sub.ita.eng.iCV-MIRCrew -


Download via torrent:
Categoria bittorrent BDRip
Descrizione
Tumbledown - Gli imprevisti della vita (2015).H264.Italian.English.Ac3.5.1.sub.ita.eng.iCV-MIRCrew

[center]

by www.icv-crew.org


NO FOUND ONLY ORIGINAL RELEASE



My release is always in double track audio italian and Original audio
for select it use VLC or dvd player home
not use wmp

Tumbledown - Gli imprevisti della vita (2015)







Un film di Sean Mewshaw
Titolo originale Tumbledown
Commedia, durata 105 min.
USA 2015



Rebecca Hall, Rose Byrne, Joe Manganiello, Jason Sudeikis, Blythe Danner



Rimasta vedova troppo presto, Hannah (Rebecca Hall) non riesce ad andare avanti con la sua vita e con la biografia che intende scrivere sul marito defunto, Hunter Miles un cantante folk autore di un memorabile album. L'aiuto di un professore universitario (Jason Sudeikis) interessato a preservare nel tempo la memoria di Hunter, sarà l'occasione per sciogliere il dolore congelato nel freddo del Maine, e riscaldare il cuore rimasto pietrificato sotto la montagna di Tumbledown



A young woman struggles to move on with her life after the death of her husband, an acclaimed folk singer, when a brash New York writer forces her to confront her loss and the ambiguous circumstances of his death.








[spoiler]
General
Unique ID                                : 253154252160290947545745336163423555374 (0xBE73BC4850C11875A2863364F2E10F2E)
Complete name                            : Tumbledown - Gli imprevisti della vita (2015).H264.ita.eng.sub.ita.eng.iCV-MIRCrew.mkv
Format                                   : Matroska
Format version                           : Version 2
File size                                : 1.48 GiB
Duration                                 : 1h 39mn
Overall bit rate                         : 2 136 Kbps
Movie name                               : Tumbledown - Gli Imprevisti Della Vita (2015).Title2
Encoded date                             : UTC 2017-05-01 15:34:12
Writing application                      : DVDFab 9.1.5.7
Writing library                          : libebml v0.7.8 + libmatroska v0.8.1

Video
ID                                       : 1
Format                                   : AVC
Format/Info                              : Advanced Video Codec
Format profile                           : [email protected]
Format settings, CABAC                   : Yes
Format settings, ReFrames                : 2 frames
Codec ID                                 : V_MPEG4/ISO/AVC
Duration                                 : 1h 39mn
Bit rate                                 : 1 262 Kbps
Width                                    : 720 pixels
Height                                   : 300 pixels
Display aspect ratio                     : 2.40:1
Frame rate                               : 25.000 fps
Color space                              : YUV
Chroma subsampling                       : 4:2:0
Bit depth                                : 8 bits
Scan type                                : Progressive
Bits/(Pixel*Frame)                       : 0.234
Stream size                              : 897 MiB (59%)
Writing library                          : x264 core
Default                                  : Yes
Forced                                   : No
Color primaries                          : BT.601-6 525, BT.1358 525, BT.1700 NTSC, SMPTE 170M
Transfer characteristics                 : BT.709-5, BT.1361
Matrix coefficients                      : BT.601-6 525, BT.1358 525, BT.1700 NTSC, SMPTE 170M

Audio #1
ID                                       : 2
Format                                   : AC-3
Format/Info                              : Audio Coding 3
Mode extension                           : CM (complete main)
Codec ID                                 : A_AC3
Duration                                 : 1h 39mn
Bit rate mode                            : Constant
Bit rate                                 : 384 Kbps
Channel(s)                               : 6 channels
Channel positions                        : Front: L C R, Side: L R, LFE
Sampling rate                            : 48.0 KHz
Bit depth                                : 16 bits
Compression mode                         : Lossy
Stream size                              : 273 MiB (18%)
Language                                 : Italian
Default                                  : Yes
Forced                                   : No

Audio #2
ID                                       : 3
Format                                   : AC-3
Format/Info                              : Audio Coding 3
Mode extension                           : CM (complete main)
Codec ID                                 : A_AC3
Duration                                 : 1h 39mn
Bit rate mode                            : Constant
Bit rate                                 : 448 Kbps
Channel(s)                               : 6 channels
Channel positions                        : Front: L C R, Side: L R, LFE
Sampling rate                            : 48.0 KHz
Bit depth                                : 16 bits
Compression mode                         : Lossy
Stream size                              : 318 MiB (21%)
Language                                 : English
Default                                  : No
Forced                                   : No

Text #1
ID                                       : 4
Format                                   : VobSub
Codec ID                                 : S_VOBSUB
Codec ID/Info                            : The same subtitle format used on DVDs
Language                                 : English
Default                                  : Yes
Forced                                   : No

Text #2
ID                                       : 5
Format                                   : VobSub
Codec ID                                 : S_VOBSUB
Codec ID/Info                            : The same subtitle format used on DVDs
Language                                 : Italian
Default                                  : No
Forced                                   : No

Text #3
ID                                       : 6
Format                                   : VobSub
Codec ID                                 : S_VOBSUB
Codec ID/Info                            : The same subtitle format used on DVDs
Language                                 : English
Default                                  : No
Forced                                   : No

Text #4
ID                                       : 7
Format                                   : VobSub
Codec ID                                 : S_VOBSUB
Codec ID/Info                            : The same subtitle format used on DVDs
Language                                 : Italian
Default                                  : No
Forced                                   : No

Menu
00:00:00.000                             : en01)00:00:00:000
00:08:57.000                             : en02)00:08:57:000
00:16:46.400                             : en03)00:16:46:400
00:25:08.480                             : en04)00:25:08:480
00:32:05.240                             : en05)00:32:05:240
00:36:36.800                             : en06)00:36:36:800
00:45:33.680                             : en07)00:45:33:680
00:51:35.360                             : en000:51:35:360
00:57:35.720                             : en09)00:57:35:720
01:07:53.720                             : en10)01:07:53:720
01:17:27.120                             : en11)01:17:27:120
01:23:16.600                             : en12)01:23:16:600
01:33:47.400                             : en13)01:33:47:400
01:39:22.000                             : en14)01:39:22:000



[/spoiler]

[/center]

Info: Per scaricare devi usare un client come uTorrent o Transmission
AnnounceURL
udp://tracker.coppersurfer.tk:6969/announce
Hash b4f1b1e476d23846c265dd6a418555187493790e
Peers seeds: 68 , leech: 13
Size 1.48 GB
Completato 1022x
Aggiunto 07.05.17 - 11:05:23
Uploader   robbyrs
Votazione (Voti: 0)


Condividi questo bittorrent:


html/blog:


bbcode/forum:




Aggiungi Commento


counter